<?xml version="1.0" standalone="no"?>
<!DOCTYPE svg PUBLIC "-//W3C//DTD SVG 1.1//EN" "http://www.w3.org/Graphics/SVG/1.1/DTD/svg11.dtd">
<svg xmlns="http://www.w3.org/2000/svg">
<defs >
<font id="OpenSans" horiz-adv-x="1342" ><font-face
    font-family="Open Sans Extrabold"
    units-per-em="2048"
    panose-1="2 11 9 6 3 8 4 2 2 4"
    ascent="2189"
    descent="-600"
    alphabetic="0" />
<glyph unicode=" " glyph-name="space" horiz-adv-x="532" />
<glyph unicode="!" glyph-name="exclam" horiz-adv-x="594" d="M463 516H133L82 1462H514L463 516ZM86 166Q86 257 140 307T297 358Q399 358 451 308T504 166Q504 76 450 26T297 -25Q198 -25 142 25T86 166Z" />
<glyph unicode="&quot;" glyph-name="quotedbl" horiz-adv-x="1073" d="M477 1462L436 934H162L121 1462H477ZM952 1462L911 934H637L596 1462H952Z" />
<glyph unicode="#" glyph-name="numbersign" horiz-adv-x="1356" d="M1042 813L1012 645H1255V391H965L891 0H623L696 391H528L457 0H190L262 391H37V645H311L342 813H104V1073H391L463 1462H731L657 1073H823L895 1462H1163L1090 1073H1319V813H1042ZM578 645H743L774
813H608L578 645Z" />
<glyph unicode="$" glyph-name="dollar" horiz-adv-x="1200" d="M504 68Q285 78 82 166V498Q198 439 334 400T573 360Q658 360 697 380T737 449Q737 482 709 505T614 557T434 627Q307 674 229 732T116 863T80 1044Q80 1209 186 1302T504 1417V1554H711V1419Q910
1408 1112 1321L993 1036Q784 1130 616 1130Q536 1130 504 1111T471 1053Q471 1020 494 999T576 951T737 889Q946 815 1037 721T1128 477Q1128 309 1022 204T711 74V-119H504V68Z" />
<glyph unicode="%" glyph-name="percent" horiz-adv-x="1942" d="M338 1022Q338 907 357 856T414 805Q452 805 470 855T489 1022Q489 1137 471 1188T414 1239Q375 1239 357 1187T338 1022ZM791 1026Q791 806 692 686T410 565Q238 565 138 689T37 1026Q37 1246
135 1364T410 1483Q585 1483 688 1360T791 1026ZM1520 1462L709 0H412L1223 1462H1520ZM1450 440Q1450 325 1469 274T1526 223Q1569 223 1585 281T1602 440Q1602 540 1586 598T1526 657Q1487 657 1469 605T1450 440ZM1903 444Q1903 225 1804 105T1522 -16Q1350
-16 1250 108T1149 444Q1149 664 1247 782T1522 901Q1697 901 1800 778T1903 444Z" />
<glyph unicode="&amp;" glyph-name="ampersand" horiz-adv-x="1636" d="M1141 0L1042 102Q952 45 895 24T766 -9T602 -20Q444 -20 323 34T137 185T72 406Q72 668 344 807Q282 877 248 955T213 1133Q213 1293 336 1387T676 1481Q887 1481 1004 1388T1122 1133Q1122
1022 1059 928T858 750L1057 561Q1132 676 1161 821H1567Q1537 683 1473 545T1327 307L1647 0H1141ZM475 434Q475 371 520 331T639 291Q696 291 739 306T805 340L557 592Q475 531 475 434ZM770 1133Q770 1182 742 1203T670 1225Q628 1225 597 1200T565 1120Q565
1045 653 965Q710 997 740 1041T770 1133Z" />
<glyph unicode="&apos;" glyph-name="quotesingle" horiz-adv-x="598" d="M477 1462L436 934H162L121 1462H477Z" />
<glyph unicode="(" glyph-name="parenleft" horiz-adv-x="735" d="M74 582Q74 872 145 1105T354 1503H680Q554 1328 486 1091T418 584Q418 323 484 89T678 -324H354Q217 -166 146 64T74 582Z" />
<glyph unicode=")" glyph-name="parenright" horiz-adv-x="735" d="M662 582Q662 299 591 68T381 -324H57Q183 -152 250 84T317 584Q317 849 251 1085T55 1503H381Q520 1337 591 1101T662 582Z" />
<glyph unicode="*" glyph-name="asterisk" horiz-adv-x="1100" d="M702 1556L664 1204L1020 1305L1057 1010L743 989L950 711L690 573L547 856L424 575L152 711L358 989L45 1014L90 1305L438 1204L399 1556H702Z" />
<glyph unicode="+" glyph-name="plus" horiz-adv-x="1159" d="M444 588H72V856H444V1223H713V856H1085V588H713V227H444V588Z" />
<glyph unicode="," glyph-name="comma" horiz-adv-x="633" d="M498 299L512 276Q415 -105 336 -285H57Q86 -147 115 24T156 299H498Z" />
<glyph unicode="-" glyph-name="hyphen" horiz-adv-x="651" d="M43 393V705H608V393H43Z" />
<glyph unicode="." glyph-name="period" horiz-adv-x="592" d="M86 166Q86 258 140 308T299 358Q398 358 451 308T504 166Q504 76 450 26T299 -25Q200 -25 143 25T86 166Z" />
<glyph unicode="/" glyph-name="slash" horiz-adv-x="905" d="M901 1483L356 -20H10L555 1483H901Z" />
<glyph unicode="0" glyph-name="zero" horiz-adv-x="1200" d="M1128 729Q1128 341 998 161T600 -20Q338 -20 205 168T72 729Q72 1119 202 1301T600 1483Q861 1483 994 1294T1128 729ZM465 729Q465 481 496 388T600 295Q674 295 704 391T735 729Q735 972 704 1069T600
1167Q527 1167 496 1073T465 729Z" />
<glyph unicode="1" glyph-name="one" horiz-adv-x="1200" d="M942 0H541V774Q541 915 547 1032Q510 987 455 938L289 801L84 1053L586 1462H942V0Z" />
<glyph unicode="2" glyph-name="two" horiz-adv-x="1200" d="M1122 0H61V260L418 621Q571 781 618 839T683 940T702 1028Q702 1085 665 1118T561 1151Q492 1151 422 1112T262 995L45 1249Q158 1350 235 1393T402 1460T606 1483Q748 1483 859 1433T1032 1291T1094
1083Q1094 997 1073 924T1006 781T887 632T569 336V326H1122V0Z" />
<glyph unicode="3" glyph-name="three" horiz-adv-x="1200" d="M1073 1145Q1073 1009 990 912T750 770V764Q1116 718 1116 418Q1116 214 955 97T506 -20Q388 -20 288 -3T70 59V387Q166 338 265 315T449 291Q579 291 638 327T698 442Q698 502 667 534T567 583T387
600H297V897H389Q690 897 690 1051Q690 1109 646 1137T526 1165Q386 1165 236 1071L72 1335Q188 1415 309 1449T588 1483Q815 1483 944 1393T1073 1145Z" />
<glyph unicode="4" glyph-name="four" horiz-adv-x="1200" d="M1169 283H1008V0H618V283H35V573L643 1462H1008V578H1169V283ZM618 578V748Q618 796 621 877T627 963H616Q582 886 539 819L377 578H618Z" />
<glyph unicode="5" glyph-name="five" horiz-adv-x="1200" d="M664 958Q790 958 891 900T1049 734T1106 487Q1106 242 959 111T512 -20Q256 -20 94 59V383Q181 343 290 317T479 291Q589 291 648 337T707 475Q707 559 647 606T465 653Q372 653 264 618L119 690L174
1462H1008V1133H510L492 940Q570 955 603 956T664 958Z" />
<glyph unicode="6" glyph-name="six" horiz-adv-x="1200" d="M70 618Q70 924 157 1113T415 1393T836 1483Q925 1483 1044 1466V1157Q944 1176 827 1176Q629 1176 532 1089T426 805H438Q528 975 727 975Q922 975 1029 850T1137 500Q1137 259 1001 120T621 -20Q362
-20 216 148T70 618ZM612 293Q675 293 714 340T754 492Q754 670 616 670Q548 670 506 624T463 512Q463 416 504 355T612 293Z" />
<glyph unicode="7" glyph-name="seven" horiz-adv-x="1200" d="M209 0L711 1133H78V1460H1133V1227L618 0H209Z" />
<glyph unicode="8" glyph-name="eight" horiz-adv-x="1200" d="M604 1483Q835 1483 963 1390T1092 1126Q1092 1010 1032 923T840 770Q1002 678 1068 587T1135 389Q1135 194 994 87T600 -20Q342 -20 205 84T68 385Q68 512 129 601T334 764Q218 842 165 931T111
1128Q111 1296 242 1389T604 1483ZM430 401Q430 339 474 302T596 264Q772 264 772 393Q772 442 734 489T596 596Q507 549 469 502T430 401ZM602 1198Q551 1198 516 1169T481 1092Q481 1006 598 940Q669 981 695 1015T721 1092Q721 1140 686 1169T602 1198Z" />
<glyph unicode="9" glyph-name="nine" horiz-adv-x="1200" d="M1133 793Q1133 364 948 172T356 -20Q222 -20 152 -10V303Q238 287 324 287Q536 287 651 374T776 651H764Q725 579 687 547T594 498T457 481Q267 481 160 608T53 958Q53 1201 191 1339T571 1477Q839
1477 986 1299T1133 793ZM582 1161Q517 1161 477 1114T436 963Q436 881 471 833T578 784Q643 784 691 831T739 944Q739 1033 695 1097T582 1161Z" />
<glyph unicode=":" glyph-name="colon" horiz-adv-x="592" d="M86 166Q86 258 140 308T299 358Q398 358 451 308T504 166Q504 76 450 26T299 -25Q200 -25 143 25T86 166ZM86 956Q86 1047 141 1097T299 1147Q398 1147 451 1097T504 956Q504 866 450 815T299 764Q197
764 142 815T86 956Z" />
<glyph unicode=";" glyph-name="semicolon" horiz-adv-x="608" d="M498 299L512 276Q415 -105 336 -285H57Q86 -147 115 24T156 299H498ZM92 956Q92 1047 145 1097T303 1147Q403 1147 456 1097T510 956Q510 866 456 815T303 764Q201 764 147 814T92 956Z" />
<glyph unicode="&lt;" glyph-name="less" horiz-adv-x="1159" d="M1083 178L72 627V799L1083 1305V1008L463 725L1083 473V178Z" />
<glyph unicode="=" glyph-name="equal" horiz-adv-x="1159" d="M72 815V1083H1087V815H72ZM72 358V629H1087V358H72Z" />
<glyph unicode="&gt;" glyph-name="greater" horiz-adv-x="1159" d="M72 473L692 725L72 1008V1305L1083 799V627L72 178V473Z" />
<glyph unicode="?" glyph-name="question" horiz-adv-x="1034" d="M295 516V602Q295 700 335 767T477 899Q558 950 593 991T629 1085Q629 1127 591 1151T492 1176Q341 1176 139 1069L0 1341Q249 1483 520 1483Q743 1483 870 1385T997 1118Q997 997 941 909T760
741Q655 673 629 642T602 567V516H295ZM252 166Q252 258 305 308T463 358Q563 358 616 308T670 166Q670 75 615 25T463 -25Q364 -25 308 24T252 166Z" />
<glyph unicode="@" glyph-name="at" horiz-adv-x="1837" d="M1755 756Q1755 615 1707 493T1572 302T1376 233Q1297 233 1233 264T1133 352H1118Q1011 233 858 233Q675 233 577 340T479 639Q479 780 541 888T720 1055T991 1114Q1072 1114 1169 1098T1348 1053L1327
631L1325 537Q1325 451 1374 451Q1426 451 1458 538T1491 758Q1491 997 1356 1127T973 1257Q783 1257 643 1178T428 952T354 606Q354 351 496 213T899 74Q1015 74 1149 99T1413 170V-59Q1189 -154 913 -154Q525 -154 304 48T82 610Q82 863 196 1063T512 1372T969
1481Q1203 1481 1382 1392T1658 1139T1755 756ZM760 641Q760 541 796 496T893 451Q970 451 1006 513T1053 733L1063 889Q1023 895 995 895Q887 895 824 828T760 641Z" />
<glyph unicode="A" glyph-name="A" horiz-adv-x="1487" d="M1055 0L983 274H508L434 0H0L477 1468H1004L1487 0H1055ZM901 598L838 838Q816 918 785 1045T743 1227Q734 1176 708 1059T590 598H901Z" />
<glyph unicode="B" glyph-name="B" horiz-adv-x="1380" d="M158 1462H668Q966 1462 1110 1374T1255 1098Q1255 975 1192 888T1026 776V766Q1162 730 1223 646T1284 428Q1284 229 1135 115T727 0H158V1462ZM553 901H672Q757 901 803 936T850 1040Q850 1163 664
1163H553V901ZM553 612V305H692Q877 305 877 461Q877 534 828 573T684 612H553Z" />
<glyph unicode="C" glyph-name="C" horiz-adv-x="1329" d="M809 1159Q668 1159 589 1044T510 725Q510 303 831 303Q928 303 1019 330T1202 395V61Q1019 -20 788 -20Q457 -20 281 172T104 727Q104 954 189 1126T435 1390T813 1483Q1050 1483 1266 1380L1145 1069Q1064
1107 983 1133T809 1159Z" />
<glyph unicode="D" glyph-name="D" horiz-adv-x="1503" d="M1399 762Q1399 396 1198 198T631 0H158V1462H664Q1016 1462 1207 1282T1399 762ZM989 748Q989 949 910 1046T668 1143H553V324H641Q821 324 905 428T989 748Z" />
<glyph unicode="E" glyph-name="E" horiz-adv-x="1124" d="M1026 0H158V1462H1026V1145H553V915H991V598H553V322H1026V0Z" />
<glyph unicode="F" glyph-name="F" horiz-adv-x="1104" d="M547 0H158V1462H1022V1145H547V866H985V549H547V0Z" />
<glyph unicode="G" glyph-name="G" horiz-adv-x="1516" d="M745 856H1376V68Q1119 -20 811 -20Q473 -20 289 176T104 735Q104 1089 306 1286T872 1483Q1010 1483 1132 1457T1346 1391L1221 1081Q1063 1159 874 1159Q701 1159 607 1047T512 725Q512 520 597 413T844
305Q932 305 1006 322V551H745V856Z" />
<glyph unicode="H" glyph-name="H" horiz-adv-x="1569" d="M1411 0H1014V596H555V0H158V1462H555V920H1014V1462H1411V0Z" />
<glyph unicode="I" glyph-name="I" horiz-adv-x="713" d="M158 0V1462H555V0H158Z" />
<glyph unicode="J" glyph-name="J" horiz-adv-x="721" d="M43 -459Q-65 -459 -162 -438V-131Q-130 -137 -94 -144T-16 -152Q82 -152 124 -93T166 109V1462H563V143Q563 -154 433 -306T43 -459Z" />
<glyph unicode="K" glyph-name="K" horiz-adv-x="1407" d="M1407 0H961L672 559L555 489V0H158V1462H555V827Q585 886 676 1014L983 1462H1415L954 807L1407 0Z" />
<glyph unicode="L" glyph-name="L" horiz-adv-x="1192" d="M158 0V1462H553V319H1116V0H158Z" />
<glyph unicode="M" glyph-name="M" horiz-adv-x="1980" d="M795 0L496 1053H487Q508 784 508 635V0H158V1462H684L989 424H997L1296 1462H1823V0H1460V641Q1460 691 1461 752T1475 1051H1466L1171 0H795Z" />
<glyph unicode="N" glyph-name="N" horiz-adv-x="1708" d="M1550 0H1032L498 1030H489Q508 787 508 659V0H158V1462H674L1206 446H1212Q1198 667 1198 801V1462H1550V0Z" />
<glyph unicode="O" glyph-name="O" horiz-adv-x="1632" d="M1526 733Q1526 364 1345 172T815 -20Q471 -20 288 173T104 735Q104 1100 286 1292T817 1485Q1166 1485 1346 1294T1526 733ZM520 733Q520 309 815 309Q965 309 1037 412T1110 733Q1110 952 1037 1056T817
1161Q520 1161 520 733Z" />
<glyph unicode="P" glyph-name="P" horiz-adv-x="1294" d="M1219 997Q1219 752 1075 619T664 485H553V0H158V1462H664Q941 1462 1080 1341T1219 997ZM553 807H625Q714 807 766 857T819 995Q819 1143 655 1143H553V807Z" />
<glyph unicode="Q" glyph-name="Q" horiz-adv-x="1632" d="M1526 733Q1526 236 1210 63L1567 -348H1075L817 -23L816 -22V-21L815 -20Q471 -20 288 173T104 735Q104 1100 286 1292T817 1485Q1166 1485 1346 1294T1526 733ZM520 733Q520 309 815 309Q965 309 1037
412T1110 733Q1110 952 1037 1056T817 1161Q520 1161 520 733Z" />
<glyph unicode="R" glyph-name="R" horiz-adv-x="1386" d="M553 532V0H158V1462H637Q1233 1462 1233 1030Q1233 776 985 637L1411 0H963L653 532H553ZM553 829H627Q834 829 834 1012Q834 1163 631 1163H553V829Z" />
<glyph unicode="S" glyph-name="S" horiz-adv-x="1182" d="M1114 444Q1114 308 1045 203T846 39T541 -20Q395 -20 296 0T90 72V424Q203 366 325 334T549 301Q637 301 678 331T719 410Q719 440 703 462T650 508T455 602Q312 667 241 728T135 868T100 1055Q100 1257
247 1370T651 1483Q878 1483 1114 1378L993 1073Q788 1167 639 1167Q562 1167 527 1140T492 1073Q492 1030 536 996T778 872Q967 787 1040 690T1114 444Z" />
<glyph unicode="T" glyph-name="T" horiz-adv-x="1210" d="M803 0H408V1139H51V1462H1159V1139H803V0Z" />
<glyph unicode="U" glyph-name="U" horiz-adv-x="1550" d="M1401 1462V582Q1401 295 1239 138T770 -20Q471 -20 311 133T150 573V1462H547V604Q547 449 605 379T776 309Q897 309 951 378T1006 606V1462H1401Z" />
<glyph unicode="V" glyph-name="V" horiz-adv-x="1421" d="M979 1462H1421L942 0H477L0 1462H444L643 721Q705 474 711 377Q718 447 739 552T776 717L979 1462Z" />
<glyph unicode="W" glyph-name="W" horiz-adv-x="2128" d="M1737 0H1270L1130 637Q1120 677 1099 796T1067 995Q1059 930 1041 834T1006 656T860 0H393L31 1462H412L571 729Q625 486 645 342Q658 444 691 619T754 909L883 1462H1249L1374 909Q1406 776 1439 602T1483
342Q1496 453 1554 727L1716 1462H2097L1737 0Z" />
<glyph unicode="X" glyph-name="X" horiz-adv-x="1481" d="M1475 0H1018L733 457L451 0H4L489 748L33 1462H471L735 1010L989 1462H1440L977 717L1475 0Z" />
<glyph unicode="Y" glyph-name="Y" horiz-adv-x="1360" d="M680 920L932 1462H1360L879 571V0H481V559L0 1462H430L680 920Z" />
<glyph unicode="Z" glyph-name="Z" horiz-adv-x="1251" d="M1200 0H61V244L694 1143H76V1462H1184V1219L551 319H1200V0Z" />
<glyph unicode="[" glyph-name="bracketleft" horiz-adv-x="664" d="M616 -344H117V1503H616V1249H434V-90H616V-344Z" />
<glyph unicode="\" glyph-name="backslash" horiz-adv-x="905" d="M352 1483L897 -20H551L6 1483H352Z" />
<glyph unicode="]" glyph-name="bracketright" horiz-adv-x="664" d="M47 -90H229V1249H47V1503H547V-344H47V-90Z" />
<glyph unicode="^" glyph-name="asciicircum" horiz-adv-x="1075" d="M-16 502L424 1468H594L1102 502H807L518 1079L394 788L270 502H-16Z" />
<glyph unicode="_" glyph-name="underscore" horiz-adv-x="1024" d="M1028 -379H-4V-133H1028V-379Z" />
<glyph unicode="`" glyph-name="grave" horiz-adv-x="1225" d="M696 1241Q627 1285 493 1379T264 1548V1569H694Q746 1499 897 1336L956 1270V1241H696Z" />
<glyph unicode="a" glyph-name="a" horiz-adv-x="1276" d="M874 0L799 150H791Q712 52 630 16T418 -20Q258 -20 166 76T74 346Q74 527 200 615T565 715L754 721V737Q754 877 616 877Q492 877 301 793L188 1051Q386 1153 688 1153Q906 1153 1025 1045T1145 743V0H874ZM584
256Q655 256 705 301T756 418V506L666 502Q473 495 473 360Q473 256 584 256Z" />
<glyph unicode="b" glyph-name="b" horiz-adv-x="1317" d="M827 1153Q1012 1153 1120 998T1229 569Q1229 293 1120 137T815 -20Q752 -20 703 -7T616 31T526 111H502L440 0H135V1556H526V1204Q526 1141 512 987H526Q583 1075 657 1114T827 1153ZM684 846Q602 846
564 789T526 610V555Q526 416 564 356T688 295Q757 295 794 365T831 573Q831 846 684 846Z" />
<glyph unicode="c" glyph-name="c" horiz-adv-x="1104" d="M651 -20Q373 -20 230 130T86 561Q86 843 241 998T682 1153Q879 1153 1053 1067L938 778Q867 809 807 827T682 846Q587 846 535 772T483 563Q483 291 684 291Q856 291 1014 391V80Q863 -20 651 -20Z" />
<glyph unicode="d" glyph-name="d" horiz-adv-x="1317" d="M487 -20Q366 -20 276 49T136 252T86 565Q86 841 197 997T502 1153Q597 1153 668 1115T799 987H807Q788 1120 788 1253V1556H1182V0H887L803 143H788Q687 -20 487 -20ZM647 289Q741 289 779 348T821 530V561Q821
711 778 774T643 838Q566 838 524 766T481 559Q481 427 524 358T647 289Z" />
<glyph unicode="e" glyph-name="e" horiz-adv-x="1266" d="M682 -20Q399 -20 243 130T86 559Q86 846 231 999T645 1153Q901 1153 1040 1020T1180 635V461H481Q485 366 550 312T729 258Q832 258 918 277T1106 344V63Q1014 16 916 -2T682 -20ZM659 887Q590 887 544
844T489 707H825Q823 789 779 838T659 887Z" />
<glyph unicode="f" glyph-name="f" horiz-adv-x="846" d="M827 840H586V0H195V840H45V1032L203 1128V1147Q203 1371 294 1469T588 1567Q666 1567 735 1555T897 1513L813 1260Q741 1280 672 1280Q627 1280 607 1253T586 1163V1133H827V840Z" />
<glyph unicode="g" glyph-name="g" horiz-adv-x="1241" d="M1204 1133V944L1049 887Q1081 829 1081 752Q1081 569 953 468T569 367Q506 367 469 375Q455 349 455 326Q455 297 502 282T625 266H813Q1194 266 1194 -55Q1194 -262 1018 -377T522 -492Q281 -492 151
-412T20 -180Q20 23 272 82Q220 104 182 153T143 250Q143 303 172 343T293 440Q205 479 155 562T104 764Q104 949 230 1051T590 1153Q621 1153 697 1146T809 1133H1204ZM350 -141Q350 -189 402 -218T541 -248Q683 -248 768 -213T854 -121Q854 -76 802 -58T653 -39H500Q437
-39 394 -68T350 -141ZM473 762Q473 588 594 588Q650 588 680 631T711 760Q711 936 594 936Q473 936 473 762Z" />
<glyph unicode="h" glyph-name="h" horiz-adv-x="1372" d="M848 0V618Q848 846 713 846Q617 846 572 766T526 498V0H135V1556H526V1335Q526 1185 510 993H528Q584 1081 661 1117T840 1153Q1030 1153 1135 1044T1241 737V0H848Z" />
<glyph unicode="i" glyph-name="i" horiz-adv-x="666" d="M528 0H137V1133H528V0ZM127 1415Q127 1503 176 1546T334 1589Q443 1589 493 1545T543 1415Q543 1243 334 1243Q127 1243 127 1415Z" />
<glyph unicode="j" glyph-name="j" horiz-adv-x="664" d="M106 -492Q58 -492 -4 -485T-104 -467V-162Q-40 -180 16 -180Q135 -180 135 -10V1133H526V-92Q526 -279 417 -385T106 -492ZM125 1415Q125 1503 174 1546T332 1589Q441 1589 491 1545T541 1415Q541 1243
332 1243Q125 1243 125 1415Z" />
<glyph unicode="k" glyph-name="k" horiz-adv-x="1350" d="M514 637Q585 750 635 813L889 1133H1325L932 651L1350 0H903L655 406L528 309V0H135V1556H528V944Q528 787 506 637H514Z" />
<glyph unicode="l" glyph-name="l" horiz-adv-x="662" d="M526 0H135V1556H526V0Z" />
<glyph unicode="m" glyph-name="m" horiz-adv-x="2048" d="M1526 0V616Q1526 731 1495 788T1395 846Q1305 846 1263 769T1221 528V0H829V616Q829 731 799 788T702 846Q610 846 568 764T526 496V0H135V1133H430L479 993H502Q547 1071 632 1112T827 1153Q1072 1153
1171 1004H1202Q1250 1074 1335 1113T1524 1153Q1725 1153 1821 1050T1917 737V0H1526Z" />
<glyph unicode="n" glyph-name="n" horiz-adv-x="1372" d="M850 0V618Q850 731 818 788T713 846Q614 846 570 767T526 496V0H135V1133H430L479 993H502Q552 1073 640 1113T844 1153Q1032 1153 1136 1044T1241 737V0H850Z" />
<glyph unicode="o" glyph-name="o" horiz-adv-x="1305" d="M1217 569Q1217 291 1068 136T649 -20Q391 -20 239 139T86 569Q86 846 235 999T655 1153Q822 1153 950 1082T1147 879T1217 569ZM483 569Q483 423 522 347T653 270Q744 270 781 346T819 569Q819 714 781
788T651 862Q561 862 522 789T483 569Z" />
<glyph unicode="p" glyph-name="p" horiz-adv-x="1317" d="M815 -20Q729 -20 661 8T526 111H508Q526 -8 526 -37V-492H135V1133H453L508 989H526Q635 1153 827 1153Q1015 1153 1122 997T1229 569Q1229 295 1118 138T815 -20ZM684 846Q598 846 564 785T526 602V571Q526
425 565 360T688 295Q763 295 797 359T831 573Q831 719 797 782T684 846Z" />
<glyph unicode="q" glyph-name="q" horiz-adv-x="1317" d="M492 -20Q302 -20 194 136T86 565Q86 841 196 997T498 1153Q703 1153 807 993H815L844 1133H1182V-492H791V-23Q791 11 803 143H791Q695 -20 492 -20ZM651 283Q740 283 780 338T821 524V571Q821 721 780
785T645 850Q483 850 483 559Q483 411 524 347T651 283Z" />
<glyph unicode="r" glyph-name="r" horiz-adv-x="961" d="M819 1153Q870 1153 916 1145L938 1141L903 772Q855 784 770 784Q642 784 584 726T526 557V0H135V1133H426L487 952H506Q555 1042 642 1097T819 1153Z" />
<glyph unicode="s" glyph-name="s" horiz-adv-x="1092" d="M1010 348Q1010 166 886 73T530 -20Q404 -20 311 -7T121 43V356Q212 316 320 290T514 264Q641 264 641 322Q641 352 606 375T399 467Q243 531 181 612T119 819Q119 977 241 1065T586 1153Q698 1153 796
1129T1001 1057L895 805Q817 840 730 864T588 889Q492 889 492 842Q492 813 525 793T719 709Q838 660 896 613T982 503T1010 348Z" />
<glyph unicode="t" glyph-name="t" horiz-adv-x="942" d="M690 289Q769 289 879 328V43Q800 9 729 -5T561 -20Q364 -20 277 76T190 373V840H53V999L227 1122L328 1360H584V1133H862V840H584V399Q584 289 690 289Z" />
<glyph unicode="u" glyph-name="u" horiz-adv-x="1372" d="M942 0L893 141H870Q821 63 734 22T528 -20Q341 -20 237 88T133 395V1133H524V514Q524 403 555 346T659 289Q760 289 803 368T846 637V1133H1237V0H942Z" />
<glyph unicode="v" glyph-name="v" horiz-adv-x="1251" d="M432 0L0 1133H408L600 463Q601 458 604 446T610 418T615 383T618 348H625Q625 400 643 461L844 1133H1251L819 0H432Z" />
<glyph unicode="w" glyph-name="w" horiz-adv-x="1864" d="M1110 0L982 540L952 703L932 834H926Q877 554 860 481L745 0H334L25 1133H410L502 698Q546 474 553 326H559Q562 418 614 676L719 1133H1151L1247 670Q1293 449 1305 326H1311Q1317 402 1331 515T1362
698L1462 1133H1839L1528 0H1110Z" />
<glyph unicode="x" glyph-name="x" horiz-adv-x="1290" d="M375 578L29 1133H473L645 815L821 1133H1266L911 578L1280 0H836L645 344L455 0H10L375 578Z" />
<glyph unicode="y" glyph-name="y" horiz-adv-x="1249" d="M-2 1133H410L602 483Q616 432 621 360H629Q637 429 653 481L850 1133H1249L801 -72Q715 -302 590 -397T262 -492Q184 -492 102 -475V-168Q155 -180 223 -180Q275 -180 314 -160T382 -104T444 16L-2 1133Z" />
<glyph unicode="z" glyph-name="z" horiz-adv-x="1038" d="M987 0H49V223L518 834H76V1133H965V891L516 299H987V0Z" />
<glyph unicode="{" glyph-name="braceleft" horiz-adv-x="887" d="M61 719Q176 719 241 763T307 889V1143Q307 1282 356 1351T515 1451T821 1483V1204Q732 1201 701 1191T650 1158T631 1098V827Q631 714 575 654T391 575V563Q519 543 575 484T631 317V41Q631 2
652 -20T708 -52T821 -66V-344Q624 -344 514 -312T356 -211T307 0V248Q307 328 240 373T61 418V719Z" />
<glyph unicode="|" glyph-name="bar" horiz-adv-x="1042" d="M387 1556H655V-446H387V1556Z" />
<glyph unicode="}" glyph-name="braceright" horiz-adv-x="887" d="M825 418Q714 418 647 373T580 248V0Q580 -140 531 -210T372 -312T66 -344V-66Q174 -62 215 -37T256 41V317Q256 425 312 484T496 563V575Q369 593 313 653T256 827V1098Q256 1137 237 1158T187
1190T66 1204V1483Q262 1483 372 1452T531 1351T580 1143V889Q580 808 645 764T825 719V418Z" />
<glyph unicode="~" glyph-name="asciitilde" horiz-adv-x="1159" d="M305 647Q195 647 72 526V807Q176 915 336 915Q405 915 466 902T616 852Q747 797 854 797Q904 797 966 829T1085 918V637Q980 528 821 528Q750 528 688 543T541 592Q410 647 305 647Z" />
<glyph unicode="&#xa0;" glyph-name="nonbreakingspace" horiz-adv-x="532" />
<glyph unicode="&#xa1;" glyph-name="exclamdown" horiz-adv-x="594" d="M133 612H463L514 -334H82L133 612ZM510 963Q510 872 457 821T299 770Q197 770 145 820T92 963Q92 1053 146 1103T299 1153Q400 1153 455 1103T510 963Z" />
<glyph unicode="&#xa2;" glyph-name="cent" horiz-adv-x="1200" d="M565 1483H772V1329Q943 1320 1096 1245L981 956Q910 987 850 1005T725 1024Q630 1024 578 950T526 741Q526 469 727 469Q899 469 1057 569V258Q930 176 772 160V-20H565V166Q353 197 241 342T129
739Q129 979 242 1127T565 1317V1483Z" />
<glyph unicode="&#xa3;" glyph-name="sterling" horiz-adv-x="1200" d="M723 1485Q933 1485 1128 1403L1018 1114Q870 1169 766 1169Q708 1169 681 1136T653 1032V926H997V649H653V553Q653 403 494 326H1165V0H104V313Q185 360 213 389T255 457T268 551V649H102V926H268V1044Q268
1259 385 1372T723 1485Z" />
<glyph unicode="&#xa4;" glyph-name="currency" horiz-adv-x="1159" d="M180 723Q180 812 221 899L96 1018L276 1200L399 1077Q483 1118 571 1118Q662 1118 748 1073L868 1200L1053 1026L926 901Q967 825 967 723Q967 629 926 547L1047 428L868 250L748 369Q659
330 571 330Q471 330 395 367L276 252L98 430L221 549Q180 631 180 723ZM436 723Q436 667 476 628T571 588Q629 588 671 626T713 723Q713 781 671 820T571 860Q515 860 476 820T436 723Z" />
<glyph unicode="&#xa5;" glyph-name="yen" horiz-adv-x="1200" d="M600 958L793 1462H1192L829 750H1024V539H782V422H1024V213H782V0H418V213H172V422H418V539H172V750H362L8 1462H408L600 958Z" />
<glyph unicode="&#xa6;" glyph-name="brokenbar" horiz-adv-x="1042" d="M387 1556H655V717H387V1556ZM387 393H655V-446H387V393Z" />
<glyph unicode="&#xa7;" glyph-name="section" horiz-adv-x="1024" d="M106 803Q106 867 149 928T270 1036Q129 1138 129 1282Q129 1419 240 1498T535 1577Q726 1577 905 1491L807 1270Q734 1310 661 1333T532 1356Q424 1356 424 1282Q424 1239 469 1203T598 1133Q773
1062 850 981T928 803Q928 726 896 666T780 545Q905 451 905 301Q905 152 789 64T469 -25Q265 -25 117 61V305Q196 261 299 229T471 197Q610 197 610 293Q610 335 579 365T440 444Q299 507 235 556T138 664T106 803ZM397 834Q397 783 441 743T596 645Q637 692 637
752Q637 809 595 852T455 936Q397 904 397 834Z" />
<glyph unicode="&#xa8;" glyph-name="dieresis" horiz-adv-x="1233" d="M223 1413Q223 1488 269 1529T393 1571Q472 1571 518 1529T565 1413Q565 1342 519 1300T393 1257Q315 1257 269 1298T223 1413ZM702 1413Q702 1488 748 1529T874 1571Q954 1571 1000 1528T1047
1413Q1047 1342 1001 1300T874 1257Q793 1257 748 1298T702 1413Z" />
<glyph unicode="&#xa9;" glyph-name="copyright" horiz-adv-x="1688" d="M887 971Q806 971 761 910T715 731Q715 603 758 546T893 489Q1031 489 1151 557V326Q1025 262 879 262Q667 262 551 386T434 735Q434 952 547 1075T868 1198Q1034 1198 1190 1120L1098 915Q992
971 887 971ZM92 731Q92 931 192 1106T467 1382T844 1483Q1041 1483 1214 1386T1491 1114T1595 731Q1595 527 1495 355T1222 81T844 -20Q637 -20 462 83T190 360T92 731ZM256 731Q256 573 335 436T551 221T844 143Q1002 143 1138 221T1353 436T1432 731Q1432 888
1355 1024T1141 1239T844 1319Q686 1319 550 1241T335 1026T256 731Z" />
<glyph unicode="&#xaa;" glyph-name="ordfeminine" horiz-adv-x="813" d="M571 741L526 868Q478 792 422 761T283 729Q174 729 112 792T49 967Q49 1083 126 1138T393 1202L481 1206V1212Q481 1253 456 1270T379 1288Q322 1288 272 1273T168 1233L92 1399Q200 1450
272 1464T436 1479Q575 1479 654 1404T733 1190V741H571ZM301 979Q301 947 319 929T371 911Q421 911 451 949T481 1047V1069L397 1063Q301 1057 301 979Z" />
<glyph unicode="&#xab;" glyph-name="guillemotleft" horiz-adv-x="1395" d="M74 588L463 1071L743 922L471 575L743 227L463 80L74 561V588ZM649 588L1036 1071L1319 922L1044 575L1319 227L1036 80L649 561V588Z" />
<glyph unicode="&#xac;" glyph-name="logicalnot" horiz-adv-x="1159" d="M1085 238H815V588H72V856H1085V238Z" />
<glyph unicode="&#xad;" glyph-name="uni00AD" horiz-adv-x="651" d="M43 393V705H608V393H43Z" />
<glyph unicode="&#xae;" glyph-name="registered" horiz-adv-x="1688" d="M1204 918Q1204 831 1171 772T1063 676L1257 313H967L821 633H786V313H506V1188H797Q1204 1188 1204 918ZM786 809H797Q855 809 888 830T922 907Q922 954 895 973T799 993H786V809ZM92
731Q92 931 192 1106T467 1382T844 1483Q1041 1483 1214 1386T1491 1114T1595 731Q1595 527 1495 355T1222 81T844 -20Q637 -20 462 83T190 360T92 731ZM256 731Q256 573 335 436T551 221T844 143Q1002 143 1138 221T1353 436T1432 731Q1432 888 1355 1024T1141
1239T844 1319Q686 1319 550 1241T335 1026T256 731Z" />
<glyph unicode="&#xaf;" glyph-name="overscore" horiz-adv-x="1024" d="M1030 1556H-6V1802H1030V1556Z" />
<glyph unicode="&#xb0;" glyph-name="degree" horiz-adv-x="864" d="M63 1114Q63 1211 112 1296T247 1432T432 1483Q531 1483 617 1433T752 1297T801 1114Q801 1017 753 933T619 800T432 750Q333 750 247 799T112 932T63 1114ZM301 1114Q301 1064 339 1026T432
987Q486 987 524 1026T563 1114Q563 1166 526 1206T432 1247Q376 1247 339 1207T301 1114Z" />
<glyph unicode="&#xb1;" glyph-name="plusminus" horiz-adv-x="1159" d="M444 684H72V952H444V1319H713V952H1085V684H713V324H444V684ZM72 0V268H1085V0H72Z" />
<glyph unicode="&#xb2;" glyph-name="twosuperior" horiz-adv-x="817" d="M750 586H76V793L291 1006Q375 1090 407 1135T440 1214Q440 1272 375 1272Q294 1272 203 1184L61 1350Q141 1423 228 1454T432 1485Q574 1485 651 1422T729 1247Q729 1201 716 1160T676
1076T601 985T403 811H750V586Z" />
<glyph unicode="&#xb3;" glyph-name="threesuperior" horiz-adv-x="817" d="M725 1266Q725 1188 688 1134T563 1047V1038Q660 1014 707 962T754 823Q754 703 656 636T379 569Q194 569 70 639V872Q187 791 367 791Q483 791 483 858Q483 899 451 914T348 930H244V1124H324Q395
1124 429 1142T463 1202Q463 1227 442 1248T371 1270Q321 1270 277 1253T180 1196L63 1366Q212 1481 406 1481Q552 1481 638 1424T725 1266Z" />
<glyph unicode="&#xb4;" glyph-name="acute" horiz-adv-x="1225" d="M264 1241V1270Q418 1435 459 1483T528 1569H956V1548Q876 1484 736 1385T524 1241H264Z" />
<glyph unicode="&#xb5;" glyph-name="mu" horiz-adv-x="1376" d="M526 518Q526 403 559 346T672 289Q765 289 806 372T848 637V1133H1241V0H948L895 152H879Q845 64 789 22T666 -20Q610 -20 576 0T514 63Q526 -27 526 -172V-492H135V1133H526V518Z" />
<glyph unicode="&#xb6;" glyph-name="paragraph" horiz-adv-x="1317" d="M1186 -260H995V1327H838V-260H647V559Q593 541 522 541Q306 541 204 666T102 1042Q102 1298 209 1427T553 1556H1186V-260Z" />
<glyph unicode="&#xb7;" glyph-name="periodcentered" horiz-adv-x="592" d="M86 723Q86 815 140 865T299 915Q398 915 451 865T504 723Q504 633 450 582T299 530Q199 530 143 581T86 723Z" />
<glyph unicode="&#xb8;" glyph-name="cedilla" horiz-adv-x="383" d="M397 -252Q397 -361 322 -426T123 -492Q-13 -492 -90 -463V-258Q-7 -285 57 -285Q109 -285 109 -238Q109 -205 68 -180T-39 -139L33 0H236L227 -29Q323 -68 360 -121T397 -252Z" />
<glyph unicode="&#xb9;" glyph-name="onesuperior" horiz-adv-x="817" d="M616 586H334V942Q334 977 337 1060T344 1159Q335 1140 313 1116T203 1018L57 1188L397 1462H616V586Z" />
<glyph unicode="&#xba;" glyph-name="ordmasculine" horiz-adv-x="803" d="M756 1104Q756 930 661 830T399 729Q240 729 145 831T49 1104Q49 1281 143 1380T403 1479Q560 1479 658 1376T756 1104ZM301 1104Q301 1017 325 975T401 932Q500 932 500 1104Q500 1278
401 1278Q301 1278 301 1104Z" />
<glyph unicode="&#xbb;" glyph-name="guillemotright" horiz-adv-x="1395" d="M1321 561L934 80L649 227L924 575L649 922L934 1071L1321 588V561ZM745 561L358 80L76 227L348 575L76 922L358 1071L745 588V561Z" />
<glyph unicode="&#xbc;" glyph-name="onequarter" horiz-adv-x="1919" d="M1798 140H1673V1H1398V140H1028V328L1378 883H1673V341H1798V140ZM1398 341V507Q1398 576 1405 642Q1365 542 1343 509L1241 341H1398ZM1412 1462L658 0H357L1110 1462H1412ZM803 586H521V942Q521
977 524 1060T531 1159Q522 1140 500 1116T390 1018L244 1188L584 1462H803V586Z" />
<glyph unicode="&#xbd;" glyph-name="onehalf" horiz-adv-x="1921" d="M1829 1H1155V208L1370 421Q1454 505 1486 550T1519 629Q1519 687 1454 687Q1373 687 1282 599L1140 765Q1220 838 1307 869T1511 900Q1653 900 1730 837T1808 662Q1808 616 1795 575T1755
491T1680 400T1482 226H1829V1ZM1436 1462L682 0H381L1134 1462H1436ZM803 586H521V942Q521 977 524 1060T531 1159Q522 1140 500 1116T390 1018L244 1188L584 1462H803V586Z" />
<glyph unicode="&#xbe;" glyph-name="threequarters" horiz-adv-x="1921" d="M1870 140H1745V1H1470V140H1100V328L1450 883H1745V341H1870V140ZM1470 341V507Q1470 576 1477 642Q1437 542 1415 509L1313 341H1470ZM745 1266Q745 1188 708 1134T583 1047V1038Q680
1014 727 962T774 823Q774 703 676 636T399 569Q214 569 90 639V872Q207 791 387 791Q503 791 503 858Q503 899 471 914T368 930H264V1124H344Q415 1124 449 1142T483 1202Q483 1227 462 1248T391 1270Q341 1270 297 1253T200 1196L83 1366Q232 1481 426 1481Q572
1481 658 1424T745 1266ZM1520 1462L766 0H465L1218 1462H1520Z" />
<glyph unicode="&#xbf;" glyph-name="questiondown" horiz-adv-x="1034" d="M739 612V526Q739 428 699 361T557 229Q500 193 467 163T420 108T406 43Q406 1 443 -23T543 -47Q691 -47 895 59L1034 -213Q791 -354 514 -354Q291 -354 164 -256T37 10Q37 130 92 218T274
387Q374 451 403 484T432 561V612H739ZM782 963Q782 870 729 820T571 770Q470 770 418 820T365 963Q365 1053 419 1103T571 1153Q672 1153 727 1104T782 963Z" />
<glyph unicode="&#xc0;" glyph-name="Agrave" horiz-adv-x="1487" d="M1055 0L983 274H508L434 0H0L477 1468H1004L1487 0H1055ZM901 598L838 838Q816 918 785 1045T743 1227Q734 1176 708 1059T590 598H901ZM704 1579Q635 1623 501 1717T272 1886V1907H702Q754
1837 905 1674L964 1608V1579H704Z" />
<glyph unicode="&#xc1;" glyph-name="Aacute" horiz-adv-x="1487" d="M1055 0L983 274H508L434 0H0L477 1468H1004L1487 0H1055ZM901 598L838 838Q816 918 785 1045T743 1227Q734 1176 708 1059T590 598H901ZM532 1579V1608Q686 1773 727 1821T796 1907H1224V1886Q1144
1822 1004 1723T792 1579H532Z" />
<glyph unicode="&#xc2;" glyph-name="Acircumflex" horiz-adv-x="1487" d="M1055 0L983 274H508L434 0H0L477 1468H1004L1487 0H1055ZM901 598L838 838Q816 918 785 1045T743 1227Q734 1176 708 1059T590 598H901ZM948 1579Q864 1627 747 1729Q622 1622 553 1579H295V1608Q364
1673 439 1761T553 1907H946Q1040 1770 1202 1608V1579H948Z" />
<glyph unicode="&#xc3;" glyph-name="Atilde" horiz-adv-x="1487" d="M1055 0L983 274H508L434 0H0L477 1468H1004L1487 0H1055ZM901 598L838 838Q816 918 785 1045T743 1227Q734 1176 708 1059T590 598H901ZM926 1577Q881 1577 836 1592T746 1625T661 1658T582
1673Q528 1673 510 1575H330Q341 1750 402 1833T582 1917Q620 1917 663 1902T750 1869T837 1836T918 1821Q947 1821 964 1846T990 1919H1172Q1161 1752 1098 1665T926 1577Z" />
<glyph unicode="&#xc4;" glyph-name="Adieresis" horiz-adv-x="1487" d="M1055 0L983 274H508L434 0H0L477 1468H1004L1487 0H1055ZM901 598L838 838Q816 918 785 1045T743 1227Q734 1176 708 1059T590 598H901ZM352 1751Q352 1826 398 1867T522 1909Q601 1909
647 1867T694 1751Q694 1680 648 1638T522 1595Q444 1595 398 1636T352 1751ZM831 1751Q831 1826 877 1867T1003 1909Q1083 1909 1129 1866T1176 1751Q1176 1680 1130 1638T1003 1595Q922 1595 877 1636T831 1751Z" />
<glyph unicode="&#xc5;" glyph-name="Aring" horiz-adv-x="1487" d="M1055 0L983 274H508L434 0H0L477 1468H1004L1487 0H1055ZM901 598L838 838Q816 918 785 1045T743 1227Q734 1176 708 1059T590 598H901ZM1011 1616Q1011 1503 935 1433T739 1362Q618 1362 547
1430T475 1614Q475 1730 546 1799T739 1868Q857 1868 934 1798T1011 1616ZM823 1614Q823 1652 799 1675T739 1698Q704 1698 680 1675T655 1614Q655 1577 676 1554T739 1530Q774 1530 798 1553T823 1614Z" />
<glyph unicode="&#xc6;" glyph-name="AE" horiz-adv-x="1937" d="M1839 0H969V274H532L432 0H-10L618 1462H1839V1145H1366V915H1804V598H1366V322H1839V0ZM653 602H969V1128H858L653 602Z" />
<glyph unicode="&#xc7;" glyph-name="Ccedilla" horiz-adv-x="1329" d="M809 1159Q668 1159 589 1044T510 725Q510 303 831 303Q928 303 1019 330T1202 395V61Q1019 -20 788 -20Q457 -20 281 172T104 727Q104 954 189 1126T435 1390T813 1483Q1050 1483 1266 1380L1145
1069Q1064 1107 983 1133T809 1159ZM964 -252Q964 -361 889 -426T690 -492Q554 -492 477 -463V-258Q560 -285 624 -285Q676 -285 676 -238Q676 -205 635 -180T528 -139L600 0H803L794 -29Q890 -68 927 -121T964 -252Z" />
<glyph unicode="&#xc8;" glyph-name="Egrave" horiz-adv-x="1124" d="M1026 0H158V1462H1026V1145H553V915H991V598H553V322H1026V0ZM586 1579Q517 1623 383 1717T154 1886V1907H584Q636 1837 787 1674L846 1608V1579H586Z" />
<glyph unicode="&#xc9;" glyph-name="Eacute" horiz-adv-x="1124" d="M1026 0H158V1462H1026V1145H553V915H991V598H553V322H1026V0ZM362 1579V1608Q516 1773 557 1821T626 1907H1054V1886Q974 1822 834 1723T622 1579H362Z" />
<glyph unicode="&#xca;" glyph-name="Ecircumflex" horiz-adv-x="1124" d="M1026 0H158V1462H1026V1145H553V915H991V598H553V322H1026V0ZM804 1579Q720 1627 603 1729Q478 1622 409 1579H151V1608Q220 1673 295 1761T409 1907H802Q896 1770 1058 1608V1579H804Z" />
<glyph unicode="&#xcb;" glyph-name="Edieresis" horiz-adv-x="1124" d="M1026 0H158V1462H1026V1145H553V915H991V598H553V322H1026V0ZM187 1751Q187 1826 233 1867T357 1909Q436 1909 482 1867T529 1751Q529 1680 483 1638T357 1595Q279 1595 233 1636T187 1751ZM666
1751Q666 1826 712 1867T838 1909Q918 1909 964 1866T1011 1751Q1011 1680 965 1638T838 1595Q757 1595 712 1636T666 1751Z" />
<glyph unicode="&#xcc;" glyph-name="Igrave" horiz-adv-x="713" d="M158 0V1462H555V0H158ZM316 1579Q247 1623 113 1717T-116 1886V1907H314Q366 1837 517 1674L576 1608V1579H316Z" />
<glyph unicode="&#xcd;" glyph-name="Iacute" horiz-adv-x="713" d="M158 0V1462H555V0H158ZM156 1579V1608Q310 1773 351 1821T420 1907H848V1886Q768 1822 628 1723T416 1579H156Z" />
<glyph unicode="&#xce;" glyph-name="Icircumflex" horiz-adv-x="713" d="M158 0V1462H555V0H158ZM558 1579Q474 1627 357 1729Q232 1622 163 1579H-95V1608Q-26 1673 49 1761T163 1907H556Q650 1770 812 1608V1579H558Z" />
<glyph unicode="&#xcf;" glyph-name="Idieresis" horiz-adv-x="713" d="M158 0V1462H555V0H158ZM-55 1751Q-55 1826 -9 1867T115 1909Q194 1909 240 1867T287 1751Q287 1680 241 1638T115 1595Q37 1595 -9 1636T-55 1751ZM424 1751Q424 1826 470 1867T596 1909Q676
1909 722 1866T769 1751Q769 1680 723 1638T596 1595Q515 1595 470 1636T424 1751Z" />
<glyph unicode="&#xd0;" glyph-name="Eth" horiz-adv-x="1503" d="M1399 762Q1399 396 1198 198T631 0H158V563H31V883H158V1462H664Q1016 1462 1207 1282T1399 762ZM989 748Q989 949 910 1046T668 1143H553V883H764V563H553V324H641Q821 324 905 428T989 748Z" />
<glyph unicode="&#xd1;" glyph-name="Ntilde" horiz-adv-x="1708" d="M1550 0H1032L498 1030H489Q508 787 508 659V0H158V1462H674L1206 446H1212Q1198 667 1198 801V1462H1550V0ZM1030 1577Q985 1577 940 1592T850 1625T765 1658T686 1673Q632 1673 614 1575H434Q445
1750 506 1833T686 1917Q724 1917 767 1902T854 1869T941 1836T1022 1821Q1051 1821 1068 1846T1094 1919H1276Q1265 1752 1202 1665T1030 1577Z" />
<glyph unicode="&#xd2;" glyph-name="Ograve" horiz-adv-x="1632" d="M1526 733Q1526 364 1345 172T815 -20Q471 -20 288 173T104 735Q104 1100 286 1292T817 1485Q1166 1485 1346 1294T1526 733ZM520 733Q520 309 815 309Q965 309 1037 412T1110 733Q1110 952
1037 1056T817 1161Q520 1161 520 733ZM829 1579Q760 1623 626 1717T397 1886V1907H827Q879 1837 1030 1674L1089 1608V1579H829Z" />
<glyph unicode="&#xd3;" glyph-name="Oacute" horiz-adv-x="1632" d="M1526 733Q1526 364 1345 172T815 -20Q471 -20 288 173T104 735Q104 1100 286 1292T817 1485Q1166 1485 1346 1294T1526 733ZM520 733Q520 309 815 309Q965 309 1037 412T1110 733Q1110 952
1037 1056T817 1161Q520 1161 520 733ZM583 1579V1608Q737 1773 778 1821T847 1907H1275V1886Q1195 1822 1055 1723T843 1579H583Z" />
<glyph unicode="&#xd4;" glyph-name="Ocircumflex" horiz-adv-x="1632" d="M1526 733Q1526 364 1345 172T815 -20Q471 -20 288 173T104 735Q104 1100 286 1292T817 1485Q1166 1485 1346 1294T1526 733ZM520 733Q520 309 815 309Q965 309 1037 412T1110 733Q1110
952 1037 1056T817 1161Q520 1161 520 733ZM1016 1579Q932 1627 815 1729Q690 1622 621 1579H363V1608Q432 1673 507 1761T621 1907H1014Q1108 1770 1270 1608V1579H1016Z" />
<glyph unicode="&#xd5;" glyph-name="Otilde" horiz-adv-x="1632" d="M1526 733Q1526 364 1345 172T815 -20Q471 -20 288 173T104 735Q104 1100 286 1292T817 1485Q1166 1485 1346 1294T1526 733ZM520 733Q520 309 815 309Q965 309 1037 412T1110 733Q1110 952
1037 1056T817 1161Q520 1161 520 733ZM997 1577Q952 1577 907 1592T817 1625T732 1658T653 1673Q599 1673 581 1575H401Q412 1750 473 1833T653 1917Q691 1917 734 1902T821 1869T908 1836T989 1821Q1018 1821 1035 1846T1061 1919H1243Q1232 1752 1169 1665T997
1577Z" />
<glyph unicode="&#xd6;" glyph-name="Odieresis" horiz-adv-x="1632" d="M1526 733Q1526 364 1345 172T815 -20Q471 -20 288 173T104 735Q104 1100 286 1292T817 1485Q1166 1485 1346 1294T1526 733ZM520 733Q520 309 815 309Q965 309 1037 412T1110 733Q1110
952 1037 1056T817 1161Q520 1161 520 733ZM403 1751Q403 1826 449 1867T573 1909Q652 1909 698 1867T745 1751Q745 1680 699 1638T573 1595Q495 1595 449 1636T403 1751ZM882 1751Q882 1826 928 1867T1054 1909Q1134 1909 1180 1866T1227 1751Q1227 1680 1181
1638T1054 1595Q973 1595 928 1636T882 1751Z" />
<glyph unicode="&#xd7;" glyph-name="multiply" horiz-adv-x="1159" d="M387 723L121 991L303 1180L573 913L848 1180L1036 997L762 723L1032 451L848 266L573 537L303 268L123 455L387 723Z" />
<glyph unicode="&#xd8;" glyph-name="Oslash" horiz-adv-x="1632" d="M1526 733Q1526 364 1345 172T815 -20Q638 -20 508 23L424 -109L231 16L315 141Q104 335 104 735Q104 1100 286 1292T817 1485Q1008 1485 1147 1430L1223 1548L1413 1434L1331 1309Q1526 1120
1526 733ZM1110 733Q1110 858 1092 944L698 324Q752 309 815 309Q965 309 1037 412T1110 733ZM520 733Q520 578 549 494L952 1133Q884 1161 817 1161Q520 1161 520 733Z" />
<glyph unicode="&#xd9;" glyph-name="Ugrave" horiz-adv-x="1550" d="M1401 1462V582Q1401 295 1239 138T770 -20Q471 -20 311 133T150 573V1462H547V604Q547 449 605 379T776 309Q897 309 951 378T1006 606V1462H1401ZM712 1579Q643 1623 509 1717T280 1886V1907H710Q762
1837 913 1674L972 1608V1579H712Z" />
<glyph unicode="&#xda;" glyph-name="Uacute" horiz-adv-x="1550" d="M1401 1462V582Q1401 295 1239 138T770 -20Q471 -20 311 133T150 573V1462H547V604Q547 449 605 379T776 309Q897 309 951 378T1006 606V1462H1401ZM561 1579V1608Q715 1773 756 1821T825 1907H1253V1886Q1173
1822 1033 1723T821 1579H561Z" />
<glyph unicode="&#xdb;" glyph-name="Ucircumflex" horiz-adv-x="1550" d="M1401 1462V582Q1401 295 1239 138T770 -20Q471 -20 311 133T150 573V1462H547V604Q547 449 605 379T776 309Q897 309 951 378T1006 606V1462H1401ZM975 1579Q891 1627 774 1729Q649 1622
580 1579H322V1608Q391 1673 466 1761T580 1907H973Q1067 1770 1229 1608V1579H975Z" />
<glyph unicode="&#xdc;" glyph-name="Udieresis" horiz-adv-x="1550" d="M1401 1462V582Q1401 295 1239 138T770 -20Q471 -20 311 133T150 573V1462H547V604Q547 449 605 379T776 309Q897 309 951 378T1006 606V1462H1401ZM362 1751Q362 1826 408 1867T532 1909Q611
1909 657 1867T704 1751Q704 1680 658 1638T532 1595Q454 1595 408 1636T362 1751ZM841 1751Q841 1826 887 1867T1013 1909Q1093 1909 1139 1866T1186 1751Q1186 1680 1140 1638T1013 1595Q932 1595 887 1636T841 1751Z" />
<glyph unicode="&#xdd;" glyph-name="Yacute" horiz-adv-x="1360" d="M680 920L932 1462H1360L879 571V0H481V559L0 1462H430L680 920ZM471 1579V1608Q625 1773 666 1821T735 1907H1163V1886Q1083 1822 943 1723T731 1579H471Z" />
<glyph unicode="&#xde;" glyph-name="Thorn" horiz-adv-x="1284" d="M1219 784Q1219 539 1075 406T664 272H553V0H158V1462H553V1249H664Q941 1249 1080 1128T1219 784ZM553 594H625Q714 594 766 644T819 782Q819 930 655 930H553V594Z" />
<glyph unicode="&#xdf;" glyph-name="germandbls" horiz-adv-x="1536" d="M1339 1190Q1339 1133 1319 1087T1270 1003T1205 936T1141 884T1091 843T1071 811Q1071 788 1095 767T1189 709Q1358 614 1417 536T1477 334Q1477 160 1362 70T1024 -20Q888 -20 803 -8T653
39V330Q702 300 784 275T932 250Q993 250 1031 273T1069 336Q1069 364 1055 383T1004 425T883 494Q757 561 708 618T659 756Q659 878 799 974Q874 1026 906 1065T938 1149Q938 1200 889 1234T748 1268Q526 1268 526 1059V0H135V1100Q135 1315 302 1441T748 1567Q1024
1567 1181 1468T1339 1190Z" />
<glyph unicode="&#xe0;" glyph-name="agrave" horiz-adv-x="1276" d="M874 0L799 150H791Q712 52 630 16T418 -20Q258 -20 166 76T74 346Q74 527 200 615T565 715L754 721V737Q754 877 616 877Q492 877 301 793L188 1051Q386 1153 688 1153Q906 1153 1025 1045T1145
743V0H874ZM584 256Q655 256 705 301T756 418V506L666 502Q473 495 473 360Q473 256 584 256ZM892 1241Q823 1285 689 1379T460 1548V1569H890Q942 1499 1093 1336L1152 1270V1241H892Z" />
<glyph unicode="&#xe1;" glyph-name="aacute" horiz-adv-x="1276" d="M874 0L799 150H791Q712 52 630 16T418 -20Q258 -20 166 76T74 346Q74 527 200 615T565 715L754 721V737Q754 877 616 877Q492 877 301 793L188 1051Q386 1153 688 1153Q906 1153 1025 1045T1145
743V0H874ZM584 256Q655 256 705 301T756 418V506L666 502Q473 495 473 360Q473 256 584 256ZM434 1241V1270Q588 1435 629 1483T698 1569H1126V1548Q1046 1484 906 1385T694 1241H434Z" />
<glyph unicode="&#xe2;" glyph-name="acircumflex" horiz-adv-x="1276" d="M874 0L799 150H791Q712 52 630 16T418 -20Q258 -20 166 76T74 346Q74 527 200 615T565 715L754 721V737Q754 877 616 877Q492 877 301 793L188 1051Q386 1153 688 1153Q906 1153 1025
1045T1145 743V0H874ZM584 256Q655 256 705 301T756 418V506L666 502Q473 495 473 360Q473 256 584 256ZM850 1494Q766 1542 649 1644Q524 1537 455 1494H197V1523Q266 1588 341 1676T455 1822H848Q942 1685 1104 1523V1494H850Z" />
<glyph unicode="&#xe3;" glyph-name="atilde" horiz-adv-x="1276" d="M874 0L799 150H791Q712 52 630 16T418 -20Q258 -20 166 76T74 346Q74 527 200 615T565 715L754 721V737Q754 877 616 877Q492 877 301 793L188 1051Q386 1153 688 1153Q906 1153 1025 1045T1145
743V0H874ZM584 256Q655 256 705 301T756 418V506L666 502Q473 495 473 360Q473 256 584 256ZM840 1239Q795 1239 750 1254T660 1287T575 1320T496 1335Q442 1335 424 1237H244Q255 1412 316 1495T496 1579Q534 1579 577 1564T664 1531T751 1498T832 1483Q861 1483
878 1508T904 1581H1086Q1075 1414 1012 1327T840 1239Z" />
<glyph unicode="&#xe4;" glyph-name="adieresis" horiz-adv-x="1276" d="M874 0L799 150H791Q712 52 630 16T418 -20Q258 -20 166 76T74 346Q74 527 200 615T565 715L754 721V737Q754 877 616 877Q492 877 301 793L188 1051Q386 1153 688 1153Q906 1153 1025 1045T1145
743V0H874ZM584 256Q655 256 705 301T756 418V506L666 502Q473 495 473 360Q473 256 584 256ZM268 1413Q268 1488 314 1529T438 1571Q517 1571 563 1529T610 1413Q610 1342 564 1300T438 1257Q360 1257 314 1298T268 1413ZM747 1413Q747 1488 793 1529T919 1571Q999
1571 1045 1528T1092 1413Q1092 1342 1046 1300T919 1257Q838 1257 793 1298T747 1413Z" />
<glyph unicode="&#xe5;" glyph-name="aring" horiz-adv-x="1276" d="M874 0L799 150H791Q712 52 630 16T418 -20Q258 -20 166 76T74 346Q74 527 200 615T565 715L754 721V737Q754 877 616 877Q492 877 301 793L188 1051Q386 1153 688 1153Q906 1153 1025 1045T1145
743V0H874ZM584 256Q655 256 705 301T756 418V506L666 502Q473 495 473 360Q473 256 584 256ZM925 1491Q925 1378 849 1308T653 1237Q532 1237 461 1305T389 1489Q389 1605 460 1674T653 1743Q771 1743 848 1673T925 1491ZM737 1489Q737 1527 713 1550T653 1573Q618
1573 594 1550T569 1489Q569 1452 590 1429T653 1405Q688 1405 712 1428T737 1489Z" />
<glyph unicode="&#xe6;" glyph-name="ae" horiz-adv-x="1915" d="M1341 -20Q1061 -20 911 170Q831 87 770 50T631 -4T434 -20Q272 -20 173 81T74 352Q74 697 571 715L754 721V739Q754 877 618 877Q480 877 305 797L195 1053Q385 1153 649 1153Q850 1153 985 1059Q1055
1108 1138 1130T1337 1153Q1566 1153 1697 1017T1829 633V461H1133Q1137 371 1207 315T1393 258Q1587 258 1757 344V63Q1663 15 1566 -2T1341 -20ZM756 506L672 502Q566 498 520 464T473 356Q473 256 586 256Q655 256 705 301T756 418V506ZM1315 887Q1153 887 1139
707H1479Q1477 789 1431 838T1315 887Z" />
<glyph unicode="&#xe7;" glyph-name="ccedilla" horiz-adv-x="1104" d="M651 -20Q373 -20 230 130T86 561Q86 843 241 998T682 1153Q879 1153 1053 1067L938 778Q867 809 807 827T682 846Q587 846 535 772T483 563Q483 291 684 291Q856 291 1014 391V80Q863 -20
651 -20ZM848 -252Q848 -361 773 -426T574 -492Q438 -492 361 -463V-258Q444 -285 508 -285Q560 -285 560 -238Q560 -205 519 -180T412 -139L484 0H687L678 -29Q774 -68 811 -121T848 -252Z" />
<glyph unicode="&#xe8;" glyph-name="egrave" horiz-adv-x="1266" d="M682 -20Q399 -20 243 130T86 559Q86 846 231 999T645 1153Q901 1153 1040 1020T1180 635V461H481Q485 366 550 312T729 258Q832 258 918 277T1106 344V63Q1014 16 916 -2T682 -20ZM659 887Q590
887 544 844T489 707H825Q823 789 779 838T659 887ZM877 1241Q808 1285 674 1379T445 1548V1569H875Q927 1499 1078 1336L1137 1270V1241H877Z" />
<glyph unicode="&#xe9;" glyph-name="eacute" horiz-adv-x="1266" d="M682 -20Q399 -20 243 130T86 559Q86 846 231 999T645 1153Q901 1153 1040 1020T1180 635V461H481Q485 366 550 312T729 258Q832 258 918 277T1106 344V63Q1014 16 916 -2T682 -20ZM659 887Q590
887 544 844T489 707H825Q823 789 779 838T659 887ZM471 1241V1270Q625 1435 666 1483T735 1569H1163V1548Q1083 1484 943 1385T731 1241H471Z" />
<glyph unicode="&#xea;" glyph-name="ecircumflex" horiz-adv-x="1266" d="M682 -20Q399 -20 243 130T86 559Q86 846 231 999T645 1153Q901 1153 1040 1020T1180 635V461H481Q485 366 550 312T729 258Q832 258 918 277T1106 344V63Q1014 16 916 -2T682 -20ZM659
887Q590 887 544 844T489 707H825Q823 789 779 838T659 887ZM858 1241Q774 1289 657 1391Q532 1284 463 1241H205V1270Q274 1335 349 1423T463 1569H856Q950 1432 1112 1270V1241H858Z" />
<glyph unicode="&#xeb;" glyph-name="edieresis" horiz-adv-x="1266" d="M682 -20Q399 -20 243 130T86 559Q86 846 231 999T645 1153Q901 1153 1040 1020T1180 635V461H481Q485 366 550 312T729 258Q832 258 918 277T1106 344V63Q1014 16 916 -2T682 -20ZM659
887Q590 887 544 844T489 707H825Q823 789 779 838T659 887ZM252 1413Q252 1488 298 1529T422 1571Q501 1571 547 1529T594 1413Q594 1342 548 1300T422 1257Q344 1257 298 1298T252 1413ZM731 1413Q731 1488 777 1529T903 1571Q983 1571 1029 1528T1076 1413Q1076
1342 1030 1300T903 1257Q822 1257 777 1298T731 1413Z" />
<glyph unicode="&#xec;" glyph-name="igrave" horiz-adv-x="666" d="M528 0H137V1133H528V0ZM302 1241Q233 1285 99 1379T-130 1548V1569H300Q352 1499 503 1336L562 1270V1241H302Z" />
<glyph unicode="&#xed;" glyph-name="iacute" horiz-adv-x="666" d="M528 0H137V1133H528V0ZM107 1241V1270Q261 1435 302 1483T371 1569H799V1548Q719 1484 579 1385T367 1241H107Z" />
<glyph unicode="&#xee;" glyph-name="icircumflex" horiz-adv-x="666" d="M528 0H137V1133H528V0ZM533 1241Q449 1289 332 1391Q207 1284 138 1241H-120V1270Q-51 1335 24 1423T138 1569H531Q625 1432 787 1270V1241H533Z" />
<glyph unicode="&#xef;" glyph-name="idieresis" horiz-adv-x="666" d="M528 0H137V1133H528V0ZM-61 1413Q-61 1488 -15 1529T109 1571Q188 1571 234 1529T281 1413Q281 1342 235 1300T109 1257Q31 1257 -15 1298T-61 1413ZM418 1413Q418 1488 464 1529T590 1571Q670
1571 716 1528T763 1413Q763 1342 717 1300T590 1257Q509 1257 464 1298T418 1413Z" />
<glyph unicode="&#xf0;" glyph-name="eth" horiz-adv-x="1313" d="M1217 580Q1217 305 1065 143T649 -20Q390 -20 239 119T88 498Q88 737 218 875T567 1014Q759 1014 811 930L819 934Q752 1064 676 1141L494 1022L377 1206L520 1298L371 1391L479 1573Q653 1500
745 1438L954 1575L1069 1393L924 1296Q1083 1139 1150 969T1217 580ZM817 545Q817 629 772 681T653 733Q561 733 525 677T489 500Q489 258 653 258Q744 258 780 329T817 545Z" />
<glyph unicode="&#xf1;" glyph-name="ntilde" horiz-adv-x="1372" d="M850 0V618Q850 731 818 788T713 846Q614 846 570 767T526 496V0H135V1133H430L479 993H502Q552 1073 640 1113T844 1153Q1032 1153 1136 1044T1241 737V0H850ZM870 1239Q825 1239 780 1254T690
1287T605 1320T526 1335Q472 1335 454 1237H274Q285 1412 346 1495T526 1579Q564 1579 607 1564T694 1531T781 1498T862 1483Q891 1483 908 1508T934 1581H1116Q1105 1414 1042 1327T870 1239Z" />
<glyph unicode="&#xf2;" glyph-name="ograve" horiz-adv-x="1305" d="M1217 569Q1217 291 1068 136T649 -20Q391 -20 239 139T86 569Q86 846 235 999T655 1153Q822 1153 950 1082T1147 879T1217 569ZM483 569Q483 423 522 347T653 270Q744 270 781 346T819 569Q819
714 781 788T651 862Q561 862 522 789T483 569ZM863 1241Q794 1285 660 1379T431 1548V1569H861Q913 1499 1064 1336L1123 1270V1241H863Z" />
<glyph unicode="&#xf3;" glyph-name="oacute" horiz-adv-x="1305" d="M1217 569Q1217 291 1068 136T649 -20Q391 -20 239 139T86 569Q86 846 235 999T655 1153Q822 1153 950 1082T1147 879T1217 569ZM483 569Q483 423 522 347T653 270Q744 270 781 346T819 569Q819
714 781 788T651 862Q561 862 522 789T483 569ZM416 1241V1270Q570 1435 611 1483T680 1569H1108V1548Q1028 1484 888 1385T676 1241H416Z" />
<glyph unicode="&#xf4;" glyph-name="ocircumflex" horiz-adv-x="1305" d="M1217 569Q1217 291 1068 136T649 -20Q391 -20 239 139T86 569Q86 846 235 999T655 1153Q822 1153 950 1082T1147 879T1217 569ZM483 569Q483 423 522 347T653 270Q744 270 781 346T819
569Q819 714 781 788T651 862Q561 862 522 789T483 569ZM852 1241Q768 1289 651 1391Q526 1284 457 1241H199V1270Q268 1335 343 1423T457 1569H850Q944 1432 1106 1270V1241H852Z" />
<glyph unicode="&#xf5;" glyph-name="otilde" horiz-adv-x="1305" d="M1217 569Q1217 291 1068 136T649 -20Q391 -20 239 139T86 569Q86 846 235 999T655 1153Q822 1153 950 1082T1147 879T1217 569ZM483 569Q483 423 522 347T653 270Q744 270 781 346T819 569Q819
714 781 788T651 862Q561 862 522 789T483 569ZM827 1239Q782 1239 737 1254T647 1287T562 1320T483 1335Q429 1335 411 1237H231Q242 1412 303 1495T483 1579Q521 1579 564 1564T651 1531T738 1498T819 1483Q848 1483 865 1508T891 1581H1073Q1062 1414 999 1327T827
1239Z" />
<glyph unicode="&#xf6;" glyph-name="odieresis" horiz-adv-x="1305" d="M1217 569Q1217 291 1068 136T649 -20Q391 -20 239 139T86 569Q86 846 235 999T655 1153Q822 1153 950 1082T1147 879T1217 569ZM483 569Q483 423 522 347T653 270Q744 270 781 346T819
569Q819 714 781 788T651 862Q561 862 522 789T483 569ZM239 1413Q239 1488 285 1529T409 1571Q488 1571 534 1529T581 1413Q581 1342 535 1300T409 1257Q331 1257 285 1298T239 1413ZM718 1413Q718 1488 764 1529T890 1571Q970 1571 1016 1528T1063 1413Q1063
1342 1017 1300T890 1257Q809 1257 764 1298T718 1413Z" />
<glyph unicode="&#xf7;" glyph-name="divide" horiz-adv-x="1159" d="M72 588V856H1085V588H72ZM422 332Q422 414 461 458T578 502Q653 502 694 459T735 332Q735 252 692 207T578 162Q507 162 465 206T422 332ZM422 1112Q422 1194 461 1238T578 1282Q653 1282
694 1239T735 1112Q735 1032 692 987T578 942Q507 942 465 986T422 1112Z" />
<glyph unicode="&#xf8;" glyph-name="oslash" horiz-adv-x="1362" d="M274 113Q86 271 86 569Q86 846 243 999T684 1153Q809 1153 918 1114L989 1225L1157 1120L1090 1016Q1274 858 1274 569Q1274 289 1118 135T678 -20Q553 -20 449 14L365 -117L195 -10L274 113ZM461
569Q461 470 473 422L762 870Q726 883 680 883Q566 883 514 809T461 569ZM899 569Q899 655 889 700L606 258Q633 250 682 250Q796 250 847 323T899 569Z" />
<glyph unicode="&#xf9;" glyph-name="ugrave" horiz-adv-x="1372" d="M942 0L893 141H870Q821 63 734 22T528 -20Q341 -20 237 88T133 395V1133H524V514Q524 403 555 346T659 289Q760 289 803 368T846 637V1133H1237V0H942ZM863 1241Q794 1285 660 1379T431 1548V1569H861Q913
1499 1064 1336L1123 1270V1241H863Z" />
<glyph unicode="&#xfa;" glyph-name="uacute" horiz-adv-x="1372" d="M942 0L893 141H870Q821 63 734 22T528 -20Q341 -20 237 88T133 395V1133H524V514Q524 403 555 346T659 289Q760 289 803 368T846 637V1133H1237V0H942ZM471 1241V1270Q625 1435 666 1483T735
1569H1163V1548Q1083 1484 943 1385T731 1241H471Z" />
<glyph unicode="&#xfb;" glyph-name="ucircumflex" horiz-adv-x="1372" d="M942 0L893 141H870Q821 63 734 22T528 -20Q341 -20 237 88T133 395V1133H524V514Q524 403 555 346T659 289Q760 289 803 368T846 637V1133H1237V0H942ZM883 1241Q799 1289 682 1391Q557
1284 488 1241H230V1270Q299 1335 374 1423T488 1569H881Q975 1432 1137 1270V1241H883Z" />
<glyph unicode="&#xfc;" glyph-name="udieresis" horiz-adv-x="1372" d="M942 0L893 141H870Q821 63 734 22T528 -20Q341 -20 237 88T133 395V1133H524V514Q524 403 555 346T659 289Q760 289 803 368T846 637V1133H1237V0H942ZM272 1413Q272 1488 318 1529T442
1571Q521 1571 567 1529T614 1413Q614 1342 568 1300T442 1257Q364 1257 318 1298T272 1413ZM751 1413Q751 1488 797 1529T923 1571Q1003 1571 1049 1528T1096 1413Q1096 1342 1050 1300T923 1257Q842 1257 797 1298T751 1413Z" />
<glyph unicode="&#xfd;" glyph-name="yacute" horiz-adv-x="1249" d="M-2 1133H410L602 483Q616 432 621 360H629Q637 429 653 481L850 1133H1249L801 -72Q715 -302 590 -397T262 -492Q184 -492 102 -475V-168Q155 -180 223 -180Q275 -180 314 -160T382 -104T444
16L-2 1133ZM401 1241V1270Q555 1435 596 1483T665 1569H1093V1548Q1013 1484 873 1385T661 1241H401Z" />
<glyph unicode="&#xfe;" glyph-name="thorn" horiz-adv-x="1317" d="M526 987Q569 1065 648 1109T827 1153Q1012 1153 1120 999T1229 569Q1229 298 1118 139T813 -20Q640 -20 526 109H512L519 49L526 -43V-492H135V1556H526V1212Q526 1106 508 987H526ZM682 846Q597
846 563 785T526 600V571Q526 425 565 360T688 295Q768 295 799 365T831 573Q831 707 798 776T682 846Z" />
<glyph unicode="&#xff;" glyph-name="ydieresis" horiz-adv-x="1249" d="M-2 1133H410L602 483Q616 432 621 360H629Q637 429 653 481L850 1133H1249L801 -72Q715 -302 590 -397T262 -492Q184 -492 102 -475V-168Q155 -180 223 -180Q275 -180 314 -160T382 -104T444
16L-2 1133ZM472 1413Q472 1488 518 1529T642 1571Q721 1571 767 1529T814 1413Q814 1342 768 1300T642 1257Q564 1257 518 1298T472 1413ZM951 1413Q951 1488 997 1529T1123 1571Q1203 1571 1249 1528T1296 1413Q1296 1342 1250 1300T1123 1257Q1042 1257 997
1298T951 1413Z" />
<glyph unicode="&#x2013;" glyph-name="endash" horiz-adv-x="1024" d="M74 414V690H950V414H74Z" />
<glyph unicode="&#x2014;" glyph-name="emdash" horiz-adv-x="2048" d="M74 414V690H1970V414H74Z" />
<glyph unicode="&#x2018;" glyph-name="quoteleft" horiz-adv-x="512" d="M35 877L20 899Q120 1290 197 1460H475Q408 1148 377 877H35Z" />
<glyph unicode="&#x2019;" glyph-name="quoteright" horiz-adv-x="512" d="M477 1460L492 1438Q400 1072 315 877H37Q105 1194 135 1460H477Z" />
<glyph unicode="&#x201a;" glyph-name="quotesinglbase" horiz-adv-x="633" d="M498 299L512 276Q415 -105 336 -285H57Q86 -147 115 24T156 299H498Z" />
<glyph unicode="&#x201c;" glyph-name="quotedblleft" horiz-adv-x="1022" d="M545 877L530 899Q630 1290 707 1460H985Q918 1148 887 877H545ZM35 877L20 899Q120 1290 197 1460H475Q408 1148 377 877H35Z" />
<glyph unicode="&#x201d;" glyph-name="quotedblright" horiz-adv-x="1022" d="M477 1460L492 1438Q400 1072 315 877H37Q105 1194 135 1460H477ZM987 1460L1001 1438Q908 1067 825 877H547Q615 1194 645 1460H987Z" />
<glyph unicode="&#x201e;" glyph-name="quotedblbase" horiz-adv-x="1143" d="M498 299L512 276Q415 -105 336 -285H57Q86 -147 115 24T156 299H498ZM1008 299L1022 276Q925 -105 846 -285H567Q596 -147 625 24T666 299H1008Z" />
<glyph unicode="&#x2022;" glyph-name="bullet" horiz-adv-x="803" d="M74 748Q74 922 158 1015T401 1108Q559 1108 644 1014T729 748Q729 576 642 482T401 387Q246 387 160 480T74 748Z" />
<glyph unicode="&#x2039;" glyph-name="guilsinglleft" horiz-adv-x="819" d="M74 588L463 1071L743 922L471 575L743 227L463 80L74 561V588Z" />
<glyph unicode="&#x203a;" glyph-name="guilsinglright" horiz-adv-x="819" d="M745 561L358 80L76 227L348 575L76 922L358 1071L745 588V561Z" />
</font>
</defs>
</svg>
