<?xml version="1.0" standalone="no"?>
<!DOCTYPE svg PUBLIC "-//W3C//DTD SVG 1.1//EN" "http://www.w3.org/Graphics/SVG/1.1/DTD/svg11.dtd" >
<svg xmlns="http://www.w3.org/2000/svg">
<metadata>
<json>
<![CDATA[
{
	"fontFamily": "PatternFlyIcons-webfont",
	"fontURL": "https://www.patternfly.org",
	"designer": "Red Hat",
	"designerURL": "",
	"license": "Apache 2.0",
	"licenseURL": "http://www.apache.org/licenses/LICENSE-2.0.html",
	"majorVersion": 3,
	"minorVersion": 0,
	"version": "Version 3.0",
	"fontId": "PatternFlyIcons-webfont",
	"psName": "PatternFlyIcons-webfont",
	"subFamily": "Regular",
	"fullName": "PatternFlyIcons-webfont",
	"description": "Font generated by IcoMoon."
}
]]>
</json>
</metadata>
<defs>
<font id="PatternFlyIcons-webfont" horiz-adv-x="1024">
<font-face units-per-em="1024" ascent="960" descent="-64" />
<missing-glyph horiz-adv-x="1024" />
<glyph unicode="&#x20;" horiz-adv-x="512" d="" />
<glyph unicode="&#xe600;" glyph-name="screen" data-tags="screen, monitor, computer, pc, desktop" d="M1024 146.286v731.429h-1024v-731.429h438.857v-73.143h-219.429v-73.143h585.143v73.143h-219.429v73.143h438.857zM146.286 731.428h731.429v-438.857h-731.429v438.857z" />
<glyph unicode="&#xe601;" glyph-name="save" data-tags="save" d="M738.448 397.076l-184.514-223.726c-36.11-36.112-48.226-35.646-83.87 0l-184.514 223.726c-23.063 23.065-15.248 41.936 17.369 41.936h135.938v201.159c-0.002 5.298 0.933 9.666 4.375 13.109 3.442 3.44 7.813 5.166 13.111 5.161h109.735c5.296 0.005 9.666-1.719 13.104-5.161 3.445-3.442 5.959-7.815 5.959-13.109v-201.159h135.938c32.619 0 40.434-18.871 17.369-41.936v0zM877.714 950.857h-877.714v-1024h1024v877.735l-146.286 146.265zM877.714 73.143h-732.425l0.997 731.429h658.286l73.143-73.143v-658.286z" />
<glyph unicode="&#xe602;" glyph-name="ok" data-tags="ok" d="M763.431 521.737c0.002-10.286-3.422-18.855-10.281-25.714l-205.835-204.24-58.288-58.29c-6.857-6.857-15.431-10.286-25.714-10.286-10.286 0-18.857 3.429-25.714 10.286l-171.227 171.189c-6.857 6.862-10.283 15.433-10.283 25.719s3.426 18.857 10.283 25.714l50.206 50.206c6.857 6.857 15.429 10.286 25.714 10.281 10.29 0 18.857-3.424 25.717-10.286l93.691-93.646 188.203 186.608c6.857 6.857 15.429 10.286 25.719 10.286 10.283 0.002 18.855-3.429 25.714-10.286l51.817-51.822c6.855-6.862 10.283-15.433 10.279-25.719v0zM512.059-73.143c-282.338 0-512.059 229.673-512.059 512.025 0 282.235 229.721 511.975 512.059 511.975 282.281 0 511.941-229.735 511.941-511.975 0.005-282.352-229.659-512.025-511.941-512.025zM512.059 826.523c-213.826 0-387.728-173.856-387.728-387.643 0-213.888 173.904-387.691 387.728-387.691 213.717 0 387.671 173.803 387.671 387.691 0.005 213.785-173.957 387.643-387.671 387.643z" />
<glyph unicode="&#xe603;" glyph-name="messages" data-tags="messages" horiz-adv-x="951" d="M672.75 578.352l10.249 20.555c0 0 35.71 80.126-45.57 104.654-75.518 22.789-353.326 106.617-392.35 118.391l7.25 55.963c4.576 35.349-19.209 72.939-54.553 72.939s-68.855-28.654-73.433-64l-124.345-960h129.145l50.066 386.533 213.232 61.563-3.671-13.854c0 0-3.627-85.241 103.961-53.019 56.818 17.015 458.126 186.702 458.126 186.702l-278.107 83.573z" />
<glyph unicode="&#xe605;" glyph-name="help" data-tags="help" d="M512.059-73.143c-282.338 0-512.059 229.673-512.059 512.025 0 282.235 229.721 511.975 512.059 511.975 282.281 0 511.941-229.735 511.941-511.975 0.005-282.352-229.659-512.025-511.941-512.025zM512.059 826.523c-213.826 0-387.728-173.856-387.728-387.643 0-213.89 173.904-387.694 387.728-387.694 213.717 0 387.671 173.803 387.671 387.694 0.005 213.785-173.957 387.643-387.671 387.643zM585.143 164.571v109.714c0 4.951-1.808 9.237-5.429 12.857s-7.906 5.429-12.857 5.429h-109.714c-4.953 0-9.239-1.808-12.857-5.429s-5.429-7.906-5.429-12.857v-109.714c0-4.951 1.81-9.237 5.429-12.857s7.904-5.429 12.857-5.429h109.714c4.951 0 9.237 1.808 12.857 5.429s5.429 7.906 5.429 12.857zM521.616 365.714c118.343 0 214.286 88.965 214.286 187.429s-95.943 178.286-214.286 178.286c-173.045 0-208.091-93.714-213.963-171.113 0-7.936 6.729-9.838 15.872-9.838s108.073 0 113.143 0c6.096 0 14.475 0.633 17.554 10.571 0 48.857 135.968 54.953 135.968-7.904 0-31.506-29.717-63.817-68.571-66.194s-82.286-7.607-82.286-54.199c0-13.022 0-25.673 0-44.693 0-19.015 9.717-22.343 27.431-22.343s54.853-0.002 54.853-0.002z" />
<glyph unicode="&#xe606;" glyph-name="folder-open" data-tags="folder-open" horiz-adv-x="1243" d="M1226.126 430.391c-11.538 5.641-24.709 8.466-39.511 8.466h-783.362c-121.691 0-172.409-79.465-172.409-79.465l-157.701-213.106 72.912 253.2c11.755 31.506 36.455 58.219 74.101 80.146 37.641 21.927 76.905 32.366 117.778 32.366h759.625v146.286c0 0-0.418 73.611-73.561 73.611-83.591 0-512 0-512 0l-51.826 81.083c0 0-30.041 64.734-94.041 64.734-73.143 0-243.257 0-292.571 0-83.591 0-73.143-73.143-73.143-73.143v-804.571h841.797c28.734 0 59.973 7.705 93.714 23.122 33.742 15.413 59.973 34.197 78.695 56.341l208.565 279.929c13.495 15.2 20.242 29.529 20.242 42.99 0 13.029-5.767 22.366-17.303 28.011v0z" />
<glyph unicode="&#xe607;" glyph-name="folder-close" data-tags="folder-close" horiz-adv-x="1097" d="M1097.563 0v658.286c0 0-0.421 73.611-73.563 73.611-83.591 0-512 0-512 0l-51.826 81.083c0 0-30.043 64.734-94.043 64.734-73.143 0-243.257 0-292.571 0-83.591 0-73.143-73.143-73.143-73.143v-804.571h1097.147z" />
<glyph unicode="&#xe608;" glyph-name="topology" data-tags="topology" d="M365.714 838.857c0-60.594-49.121-109.714-109.714-109.714s-109.714 49.121-109.714 109.714c0 60.594 49.121 109.714 109.714 109.714s109.714-49.121 109.714-109.714zM1097.143 182.857c0-60.594-49.121-109.714-109.714-109.714s-109.714 49.121-109.714 109.714c0 60.594 49.121 109.714 109.714 109.714s109.714-49.121 109.714-109.714zM219.429 256c0-60.594-49.121-109.714-109.714-109.714s-109.714 49.121-109.714 109.714c0 60.594 49.121 109.714 109.714 109.714s109.714-49.121 109.714-109.714zM828.8 306.286l-75.2 51.2c8.457 25.6 13.257 52.8 13.257 81.143 0 55.086-17.371 106.057-47.314 147.886l87.771 89.6c20.8-11.429 44.8-18.057 70.4-18.057 80.686 0 146.286 65.6 146.286 146.286s-65.6 146.514-146.286 146.514c-80.686 0-146.286-65.6-146.286-146.286 0-28.8 8.229-55.543 22.629-78.171l-85.029-86.857c-43.2 33.829-97.829 54.171-157.029 54.171-33.829 0-66.286-6.629-96-18.743l-13.943 18.971c-13.486 18.286-37.714 23.543-53.714 11.429-16.229-11.886-18.514-36.571-5.257-54.857l9.6-13.029c-58.286-46.629-95.543-118.4-95.543-198.857 0-22.4 2.971-44.114 8.457-64.914l-2.743-1.143c-19.2-9.371-28.343-32-20.571-50.286s29.943-25.6 48.914-16.457l2.514 1.143c35.429-58.514 93.486-101.486 162.286-117.029l-4.343-42.057c-49.143-11.2-85.714-55.771-85.714-109.257 0-61.943 49.143-112 109.714-112s109.714 50.057 109.714 112c0 44.114-24.914 82.057-61.029 100.343l4.8 45.257c79.314 5.257 148.571 46.629 191.771 107.886l68.8-46.857c18.286-12.571 42.286-9.143 53.029 7.771s4.571 40.914-13.943 53.257zM877.714 882.286c42.971 0 77.714-34.743 77.714-77.714s-34.743-77.714-77.714-77.714-77.714 34.743-77.714 77.714 34.743 77.714 77.714 77.714zM475.429-20.572c-32.914 0-59.429 26.514-59.429 59.429s26.514 59.429 59.429 59.429 59.429-26.514 59.429-59.429-26.514-59.429-59.429-59.429zM512 299.428c-77.029 0-139.429 62.4-139.429 139.429s62.4 139.429 139.429 139.429 139.429-62.4 139.429-139.429-62.4-139.429-139.429-139.429z" />
<glyph unicode="&#xe60a;" glyph-name="edit" data-tags="edit" d="M219.554 0l73.294 73.143-146.583 146.286-73.070-73.143v-73.143h73.090v-73.438l73.269 0.295zM806.176 512l-586.747-585.143h-219.429v219.429l586.585 585.143 219.591-219.429zM1024 762.937c0-19.056-6.656-35.237-19.968-48.537l-146.578-150.455-218.686 218.505 148.576 147.915c12.955 13.662 29.147 20.494 48.578 20.494 19.074 0 35.445-6.832 49.115-20.494l118.994-118.352c13.312-14.023 19.968-30.384 19.968-49.077v0z" />
<glyph unicode="&#xe60b;" glyph-name="close" data-tags="close" horiz-adv-x="731" d="M96.464 804.571c-4.816-0.064-9.12-1.963-12.912-5.733l-77.815-77.815c-3.769-3.794-5.669-8.096-5.735-12.91-0.032-4.839 1.815-9.113 5.543-12.823l616.603-616.606c3.71-3.714 7.986-5.577 12.823-5.541 4.834 0.039 9.138 1.957 12.91 5.73l77.817 77.819c3.769 3.769 5.691 8.066 5.73 12.912 0.037 4.839-1.829 9.106-5.538 12.825l-616.606 616.599c-3.717 3.73-7.986 5.575-12.821 5.541zM622.144 799.031l-616.603-616.601c-3.726-3.717-5.577-7.989-5.536-12.827 0.059-4.843 1.959-9.143 5.728-12.914l77.817-77.817c3.792-3.774 8.096-5.691 12.91-5.728 4.837-0.039 9.106 1.824 12.821 5.536l616.599 616.608c3.717 3.712 5.579 7.989 5.543 12.823-0.041 4.814-1.959 9.118-5.728 12.91l-77.824 77.808c-3.767 3.778-8.073 5.678-12.907 5.744-4.834 0.034-9.104-1.815-12.818-5.541z" />
<glyph unicode="&#xe610;" glyph-name="equalizer" data-tags="equalizer, control, options, settings, dashboard" d="M950.857 438.857h18.286c30.171 0 54.857 24.686 54.857 54.857v182.857c0 30.171-24.686 54.857-54.857 54.857h-18.286v219.429h-146.286v-219.429h-18.286c-30.171 0-54.857-24.686-54.857-54.857v-182.857c0-30.171 24.686-54.857 54.857-54.857h18.286v-512h146.286v512zM804.571 658.286h146.286v-146.286h-146.286v146.286zM603.429 146.286c30.171 0 54.857 24.686 54.857 54.857v182.857c0 30.171-24.686 54.857-54.857 54.857h-18.286v512h-146.286v-512h-18.286c-30.171 0-54.857-24.686-54.857-54.857v-182.857c0-30.171 24.686-54.857 54.857-54.857h18.286v-219.429h146.286v219.429h18.286zM438.857 365.714h146.286v-146.286h-146.286v146.286zM237.714 438.857c30.171 0 54.857 24.686 54.857 54.857v182.857c0 30.171-24.686 54.857-54.857 54.857h-18.286v219.429h-146.286v-219.429h-18.286c-30.171 0-54.857-24.686-54.857-54.857v-182.857c0-30.171 24.686-54.857 54.857-54.857h18.286v-512h146.286v512h18.286zM73.143 658.286h146.286v-146.286h-146.286v146.286z" />
<glyph unicode="&#xe611;" glyph-name="remove2" data-tags="remove, delete, trashcan, recycle bin, bin, dispose" horiz-adv-x="878" d="M146.286-73.143h585.143l73.143 658.286h-731.429l73.143-658.286zM585.143 804.855v146.002h-292.571v-146.002l-292.571-0.283v-219.429l73.001 73.143h731.57l73.143-73.143v219.712h-292.571zM511.010 804.855h-145.296v73.001h145.296v-73.001z" />
<glyph unicode="&#xe612;" glyph-name="print" data-tags="print, printer" d="M219.429 877.714h585.143v-146.286h-585.143v146.286zM960 658.286h-896c-35.2 0-64-28.8-64-64v-310.857c0-35.2 28.798-64 64-64h155.429v-219.429h585.143v219.429h155.429c35.2 0 64 28.8 64 64v310.857c0 35.2-28.8 64-64 64zM731.429 73.143h-438.857v292.571h438.857v-292.571zM959.925 550.018c0-25.625-20.777-46.4-46.402-46.4s-46.402 20.775-46.402 46.4 20.777 46.4 46.402 46.4c25.63 0 46.402-20.775 46.402-46.4z" />
<glyph unicode="&#xe613;" glyph-name="spinner2" data-tags="spinner, loading, busy, wait, wheel, repeat" d="M874.016 800.873c-92.647 92.658-220.631 149.984-362.016 149.984-282.77 0-512-229.23-512-512s229.23-512 512-512c153.639 0 291.458 67.691 385.303 174.857l-96.32 84.283c-5.595-6.377-11.401-12.615-17.458-18.667-72.523-72.528-168.955-112.473-271.525-112.473s-198.999 39.945-271.531 112.466c-72.521 72.535-112.469 168.965-112.469 271.534s39.947 198.999 112.469 271.529c72.53 72.526 168.962 112.471 271.531 112.471s198.999-39.945 271.529-112.471l154.805-61.198-64.318 151.685zM682.425 627.568c-23.333-23.333-15.424-42.425 17.575-42.425h264c51.666 0 60 9.001 60 60v264c0 33.001-19.093 40.907-42.425 17.575l-299.15-299.15z" />
<glyph unicode="&#xe614;" glyph-name="spinner" data-tags="spinner, loading, busy, wait, wheel" d="M585.143 754.658c85.63-20.126 158.018-74.816 201.838-148.633l185.614 60.357c-72.864 150.469-216.526 259.899-387.451 284.475v-196.199zM237.598 607.001c43.877 73.323 116.007 127.621 201.259 147.659v196.197c-170.457-24.507-313.803-133.403-386.857-283.234l185.598-60.622zM153.895 73.73l115.23 158.366c-48.059 56.265-77.125 129.403-77.125 209.378 0 8.761 0.366 17.433 1.056 26.016l-185.776 60.681c-4.766-28.19-7.282-57.145-7.282-86.697 0.002-144.094 58.951-274.327 153.897-367.744zM635.152 144.539c-37.909-15.906-79.506-24.702-123.152-24.702-44.366 0-86.615 9.083-125.024 25.483l-115.232-158.368c71.648-38.343 153.419-60.098 240.256-60.098 86.089 0 167.195 21.387 238.402 59.118l-115.25 158.567zM831.031 466.354c0.631-8.213 0.969-16.507 0.969-24.882 0-80.704-29.589-154.455-78.439-210.923l115.047-158.288c95.824 93.52 155.392 224.363 155.392 369.211 0 29.079-2.427 57.579-7.047 85.337l-185.922-60.455z" />
<glyph unicode="&#xe615;" glyph-name="import" data-tags="import" d="M687.721 571.335l-95.387-95.387-393.84 393.856c-5.285 5.262-11.353 7.909-18.203 7.911-6.862 0-12.935-2.649-18.222-7.911l-81.019-81.019c-5.262-5.285-7.909-11.353-7.909-18.219 0-6.85 2.649-12.914 7.909-18.203l393.856-393.84-95.381-95.381c-24.039-24.037-15.89-43.705 18.105-43.705h271.982c53.227 0 61.813 9.273 61.813 61.813v271.984c0.005 33.995-19.662 42.149-43.703 18.103zM877.714 84.571c0-3.312-1.077-6.048-3.232-8.203-2.151-2.151-4.889-3.227-8.199-3.225h-708.661c-3.287 0-5.998 1.067-8.137 3.202-2.135 2.137-3.202 4.848-3.202 8.135v404.843c0 6.571-2.135 11.995-6.409 16.272-4.27 4.267-9.696 6.407-16.267 6.405h-100.933c-6.571 0.002-11.998-2.137-16.267-6.405-4.277-4.277-6.409-9.701-6.409-16.272v-539.79c-0.002-6.571 2.137-11.998 6.405-16.267 4.277-4.274 9.701-6.409 16.272-6.409h978.647c6.571-0.002 11.998 2.137 16.267 6.405 4.274 4.277 6.409 9.701 6.409 16.272v978.647c0 6.571-2.135 11.995-6.409 16.272-4.27 4.267-9.696 6.407-16.267 6.405h-539.787c-6.571 0-11.995-2.135-16.272-6.409-4.267-4.27-6.407-9.696-6.405-16.267v-100.933c-0.002-6.569 2.137-11.998 6.405-16.265 4.277-4.277 9.701-6.411 16.272-6.411h404.752c3.312 0 6.048-1.077 8.203-3.232 2.151-2.149 3.227-4.889 3.225-8.197v-708.571z" />
<glyph unicode="&#xe616;" glyph-name="export" data-tags="export" d="M980.293 278.754l-95.387-95.387-393.84 393.856c-5.285 5.262-11.353 7.909-18.203 7.911-6.862 0-12.935-2.649-18.222-7.911l-81.019-81.019c-5.262-5.285-7.909-11.353-7.909-18.219 0-6.85 2.649-12.914 7.909-18.203l393.856-393.84-95.381-95.381c-24.039-24.037-15.89-43.705 18.105-43.705h271.982c53.227 0 61.813 9.273 61.813 61.813v271.982c0.005 33.998-19.662 42.151-43.703 18.105zM146.286 793.143c0 3.312 1.077 6.048 3.232 8.203 2.151 2.151 4.889 3.227 8.199 3.225h708.661c3.287 0 5.998-1.067 8.137-3.202 2.135-2.137 3.202-4.848 3.202-8.135v-331.701c0-6.571 2.135-11.995 6.409-16.272 4.27-4.267 9.696-6.407 16.267-6.405h100.933c6.571-0.002 11.998 2.137 16.267 6.405 4.277 4.277 6.409 9.701 6.409 16.272v466.647c0.002 6.571-2.137 11.998-6.405 16.267-4.277 4.274-9.701 6.409-16.272 6.409h-978.649c-6.571 0.002-11.998-2.137-16.267-6.405-4.274-4.277-6.409-9.701-6.409-16.272v-978.647c0-6.571 2.135-11.995 6.409-16.272 4.27-4.267 9.696-6.407 16.267-6.405h466.647c6.571 0 11.995 2.135 16.272 6.411 4.267 4.267 6.407 9.696 6.405 16.265v100.933c0.002 6.569-2.137 11.998-6.405 16.265-4.277 4.277-9.701 6.411-16.272 6.411h-331.609c-3.312 0-6.048 1.077-8.203 3.232-2.151 2.149-3.227 4.889-3.225 8.197v708.571z" />
<glyph unicode="&#xe617;" glyph-name="history" data-tags="history" d="M149.984 800.873c92.647 92.658 220.631 149.984 362.016 149.984 282.77 0 512-229.23 512-512s-229.23-512-512-512c-153.639 0-291.458 67.691-385.303 174.857l96.32 84.283c5.595-6.377 11.401-12.615 17.458-18.667 72.523-72.528 168.955-112.473 271.525-112.473s198.999 39.945 271.531 112.466c72.523 72.533 112.469 168.965 112.469 271.534s-39.947 198.999-112.469 271.529c-72.53 72.526-168.962 112.471-271.531 112.471s-198.999-39.945-271.529-112.471l-154.805-61.198 64.318 151.685zM324.571 365.714c-9.335 0-17.001 2.999-22.999 9.001-6 6-9.001 13.666-9.001 22.999v9.143c0 9.335 2.999 17.001 9.001 22.999 6 6 13.666 9.001 22.999 9.001h187.429v260.571c0 9.335 2.999 17.001 9.001 22.999 6 6 13.666 9.001 22.999 9.001h9.143c9.335 0 17.001-2.999 22.999-9.001 6-6 9.001-13.666 9.001-22.999v-301.714c0-9.335-2.999-17.001-9.001-22.999-6-6-13.666-9.001-22.999-9.001h-228.571zM341.575 627.568c23.333-23.333 15.424-42.425-17.575-42.425h-264c-51.666 0-60 9.001-60 60v264c0 33.001 19.093 40.907 42.425 17.575l299.15-299.15z" />
<glyph unicode="&#xe618;" glyph-name="home" data-tags="home" d="M1023.929 430.75c-0.425 5.714-2.752 10.267-6.987 13.655l-456.672 417.266c-13.55 11.008-29.641 16.514-48.27 16.514-18.631 0-34.722-5.504-48.272-16.514l-456.67-417.266c-4.235-3.387-6.562-7.941-6.987-13.655-0.425-5.719 1.058-10.695 4.446-14.928l35.017-42.933c3.387-3.81 7.833-6.139 13.337-6.987 0.997-0.082 36.619-0.135 93.282-0.16v-325.563c0-11.008 4.023-20.537 12.069-28.581 8.046-8.046 17.573-12.069 28.581-12.069h252.030v293.545h146.279v-293.545h252.085c11.008 0 20.535 4.025 28.581 12.069 8.048 8.043 12.066 17.573 12.066 28.581v325.685c55.454 0.023 90.258 0 91.323 0h1.906c5.504 0.848 9.95 3.214 13.337 7.024l35.072 42.933c3.387 4.235 4.871 9.211 4.448 14.93z" />
<glyph unicode="&#xe61b;" glyph-name="add-circle-o" data-tags="add-circle-o" d="M512.059-73.143c-282.338 0-512.059 229.673-512.059 512.025 0 282.238 229.721 511.975 512.059 511.975 282.283 0 511.941-229.735 511.941-511.975 0.005-282.352-229.659-512.025-511.941-512.025zM512.059 826.523c-213.826 0-387.728-173.856-387.728-387.643 0-213.888 173.904-387.691 387.728-387.691 213.717 0 387.671 173.803 387.671 387.691 0.005 213.785-173.957 387.643-387.671 387.643zM726.283 506.777c-3.429 3.477-7.803 5.223-13.138 5.223h-128.005v128.007c0 5.333-1.739 9.71-5.218 13.138s-7.936 5.141-13.351 5.141h-109.143c-5.417 0-9.863-1.714-13.351-5.141-3.481-3.429-5.221-7.808-5.221-13.141v-128.005l-128.007-0.002c-5.333 0-9.71-1.737-13.138-5.218-3.426-3.477-5.141-7.934-5.141-13.351v-109.143c0-5.417 1.714-9.856 5.141-13.351 3.429-3.481 7.808-5.221 13.141-5.221l128.005 0.002v-128.009c0-5.335 1.744-9.707 5.225-13.134 3.477-3.429 7.927-5.145 13.344-5.145h109.143c5.417 0 9.858 1.717 13.351 5.145 3.477 3.429 5.223 7.803 5.223 13.138v128.002h128.007c5.335 0 9.707 1.742 13.134 5.225 3.429 3.477 5.145 7.927 5.145 13.344v109.143c0 5.417-1.717 9.863-5.145 13.351z" />
<glyph unicode="&#xe61e;" glyph-name="service" data-tags="service" d="M1316.571 621.486l-219.429 183.543v-146.743h-131.429c-0.229 0.229-0.229 0.686-0.457 0.914-39.314 67.2-92.571 120.457-159.771 159.771-67.2 39.086-140.571 58.743-220.343 58.743s-153.143-19.657-220.343-58.971c-67.2-39.314-120.457-92.571-159.771-159.771-39.086-67.2-58.743-140.571-58.743-220.114 0-24.914 1.829-49.143 5.714-72.686h-152.229l0.229-73.371h170.743c8.914-25.6 20.571-50.286 34.514-74.286 39.314-67.2 92.571-120.457 159.771-159.771s140.571-58.743 220.343-58.743c79.771 0 153.143 19.657 220.343 58.743 67.2 39.314 120.457 92.571 159.771 159.771 38.857 67.2 58.514 140.571 58.514 220.343 0 51.2-8.229 99.886-24.457 146.057h97.6v-146.514l219.429 183.086zM242.514 437.714c0 46.629 9.143 90.971 27.429 133.486s42.743 79.086 73.371 109.714c30.629 30.629 67.2 55.086 109.714 73.371s86.857 27.429 133.486 27.429c46.629 0 90.971-9.143 133.486-27.429s79.086-42.743 109.714-73.371c7.086-7.086 13.943-14.629 20.571-22.4h-265.371l0.229-73.371h311.314c2.057-4.571 4.343-9.143 6.171-13.714 18.286-42.514 27.429-86.857 27.429-133.486s-9.143-90.971-27.429-133.486c-18.286-42.514-42.743-79.086-73.371-109.714s-67.2-55.086-109.714-73.371c-42.514-18.286-86.857-27.429-133.486-27.429s-90.971 9.143-133.486 27.429c-42.514 18.286-79.086 42.743-109.714 73.371-27.886 27.886-50.514 60.571-68.114 98.057l310.4-0.229v-146.286l218.743 183.086-218.743 183.314v-146.514h-335.086c-5.029 23.314-7.543 47.086-7.543 71.543z" />
<glyph unicode="&#xe61f;" glyph-name="image" data-tags="image" d="M1011.429 759.543c-9.371 13.486-21.943 23.086-37.486 29.029l-432.229 157.257c-9.143 3.429-18.057 5.029-27.2 5.029-0.457 0-0.914 0-1.371 0s-0.914 0-1.371 0c-8.914 0-18.057-1.6-26.971-5.029l-432.229-157.486c-15.543-5.714-28.114-15.314-37.486-29.029-9.371-13.486-14.171-28.571-14.171-45.029v-472.686c0-14.4 3.657-27.657 10.971-40s17.371-21.943 30.171-29.029l432.457-236.343c11.429-6.629 24-9.829 37.486-9.829 0.457 0 0.914 0 1.371 0s0.914 0 1.371 0c13.486 0 26.057 3.2 37.486 9.829l432.457 236.343c12.8 6.857 22.629 16.686 30.171 29.029s10.971 25.6 10.971 40v472.914c-0.229 16.457-5.029 31.314-14.4 45.029zM72.457 285.943v74.057l440.686-210.286 438.629 210.286v-74.057l-438.629-238.4-440.686 238.4zM513.143 300.343l-440.686 196.343v82.514l440.686-181.029 438.629 183.771v-85.029l-438.629-196.571z" />
<glyph unicode="&#xe620;" glyph-name="cluster" data-tags="cluster" d="M-1.371 547.886v146.743c0 9.829 3.657 18.514 10.971 25.829s15.771 10.971 25.829 10.971h954.286c9.829 0 18.514-3.657 25.829-10.971s10.971-15.771 10.971-25.829v-146.743c0-10.057-3.657-18.514-10.971-25.829s-15.771-10.971-25.829-10.971h-954.514c-10.057 0-18.514 3.657-25.829 10.971-7.086 7.314-10.743 15.771-10.743 25.829zM866.514 584.457h86.171v73.371h-86.171v-73.371zM84.114 584.457h86.171v73.371h-86.171v-73.371zM223.543 584.457h86.171v73.371h-86.171v-73.371zM362.743 584.457h86.171v73.371h-86.171v-73.371zM502.171 584.457h86.171v73.371h-86.171v-73.371zM-1.371-36.114v146.743c0 9.829 3.657 18.514 10.971 25.829s15.771 10.971 25.829 10.971h954.286c9.829 0 18.514-3.657 25.829-10.971s10.971-15.771 10.971-25.829v-146.743c0-10.057-3.657-18.514-10.971-25.829s-15.771-10.971-25.829-10.971h-954.514c-10.057 0-18.514 3.657-25.829 10.971-7.086 7.314-10.743 16-10.743 25.829zM866.514 0.686h86.171v73.371h-86.171v-73.371zM84.114 0.686h86.171v73.371h-86.171v-73.371zM223.543 0.686h86.171v73.371h-86.171v-73.371zM362.743 0.686h86.171v73.371h-86.171v-73.371zM502.171 0.686h86.171v73.371h-86.171v-73.371zM-1.371 253.943v146.743c0 9.829 3.657 18.514 10.971 25.829s15.771 10.971 25.829 10.971h954.286c9.829 0 18.514-3.657 25.829-10.971s10.971-15.771 10.971-25.829v-146.743c0-10.057-3.657-18.514-10.971-25.829s-15.771-10.971-25.829-10.971h-954.514c-10.057 0-18.514 3.657-25.829 10.971-7.086 7.314-10.743 16-10.743 25.829zM866.514 290.743h86.171v73.371h-86.171v-73.371zM84.114 290.743h86.171v73.371h-86.171v-73.371zM223.543 290.743h86.171v73.371h-86.171v-73.371zM362.743 290.743h86.171v73.371h-86.171v-73.371zM502.171 290.743h86.171v73.371h-86.171v-73.371zM-2.286 779.2c-2.743 5.714 0.229 12.8 8.686 21.029 0 0 142.171 127.314 152.686 139.657s24 9.829 24 9.829h658.286c0 0 11.886 1.371 22.629-10.286 10.514-11.657 151.086-139.2 151.086-139.2 8.457-8.457 11.429-15.314 8.686-21.029s-9.829-8.686-21.486-8.686h-983.314c-11.429 0-18.743 2.971-21.257 8.686z" />
<glyph unicode="&#xe621;" glyph-name="container-node" data-tags="container-node" d="M0.914 346.743c-2.743 10.743 0.229 24.229 8.686 40 0 0 141.714 301.714 152.229 325.257s23.771 18.514 23.771 18.514h655.771c0 0 11.886 2.743 22.4-19.657s150.629-324.114 150.629-324.114c8.457-15.771 11.2-29.257 8.686-40-2.743-10.971-9.829-16.229-21.257-16.229h-979.657c-11.429 0-18.514 5.486-21.257 16.229zM1.829 109.028v146.743c0 9.829 3.657 18.514 10.971 25.829s15.771 10.971 25.6 10.971h949.029c9.829 0 18.514-3.657 25.6-10.971 7.314-7.314 10.971-15.771 10.971-25.829v-146.743c0-10.057-3.657-18.514-10.971-25.829s-15.771-10.971-25.6-10.971h-949.257c-10.057 0-18.514 3.657-25.6 10.971s-10.743 15.771-10.743 25.829zM864.914 145.6h85.714v73.371h-85.714v-73.371zM86.857 145.6h85.714v73.371h-85.714v-73.371zM225.6 145.6h85.714v73.371h-85.714v-73.371zM363.886 145.6h85.714v73.371h-85.714v-73.371zM502.629 145.6h85.714v73.371h-85.714v-73.371z" />
<glyph unicode="&#xe623;" glyph-name="registry" data-tags="registry" d="M799.314 529.6c3.2 5.257 4.8 11.2 4.8 17.371v226.971c0 7.086-2.057 13.714-5.943 19.657-4.114 5.943-9.371 10.057-16 12.571l-184.914 68.571c-3.886 1.371-7.771 2.057-11.657 2.057-0.229 0-0.457 0-0.457 0-0.229 0-0.457 0-0.457 0-3.886 0-7.771-0.686-11.657-2.057l-184.914-68.571c-6.629-2.514-11.886-6.629-16-12.571s-5.943-12.343-5.943-19.657v-226.971c0-6.171 1.6-12.114 4.8-17.371s7.543-9.6 12.8-12.571l184.914-73.829c4.8-2.743 10.286-4.343 16-4.343 0.229 0 0.457 0 0.457 0s0.457 0 0.457 0c5.714 0 11.2 1.371 16 4.343l184.914 73.829c5.257 2.971 9.6 7.086 12.8 12.571zM770.286 574.628l-185.371-82.286-185.6 82.286v32.229l185.6-78.4 185.371 78.4v-32.229zM770.286 678.857l-185.143-84.8-185.6 84.8v35.886l185.6-78.171 185.371 79.314-0.229-37.029zM486.4 355.2l-216 80c-4.571 1.6-8.914 2.514-13.486 2.514-0.229 0-0.457 0-0.686 0s-0.457 0-0.686 0c-4.571 0-8.914-0.914-13.486-2.514l-216-80c-7.771-2.971-13.943-7.771-18.743-14.629-5.029-6.857-7.314-14.629-7.314-22.857v-264.686c0-7.314 1.829-14.171 5.486-20.343s8.686-11.2 15.086-14.629l216-86.171c5.714-3.429 11.886-5.029 18.743-5.029 0.229 0 0.457 0 0.686 0s0.457 0 0.686 0c6.857 0 13.029 1.6 18.743 5.029l216 110.4c6.4 3.429 11.429 8.457 15.086 14.629s5.486 13.029 5.486 20.343v240.457c0 8.229-2.286 16-7.086 22.857-4.571 6.857-10.743 11.657-18.514 14.629zM472.686 87.543l-216.686-98.514-216.914 96v37.714l216.914-91.429 216.686 93.943v-37.714zM472.686 206.857l-216.686-98.971-216.914 98.971v41.829l216.914-91.2 216.686 92.571v-43.2zM1144.457 355.2l-216 80c-4.571 1.6-8.914 2.514-13.486 2.514-0.229 0-0.457 0-0.686 0s-0.457 0-0.686 0c-4.571 0-8.914-0.914-13.486-2.514l-216-80c-7.771-2.971-13.943-7.771-18.743-14.629s-7.086-14.4-7.086-22.857v-264.686c0-7.314 1.829-14.171 5.486-20.343s8.686-11.2 15.086-14.629l216-86.171c5.714-3.429 11.886-5.029 18.743-5.029 0.229 0 0.457 0 0.686 0s0.457 0 0.686 0c6.857 0 13.029 1.6 18.743 5.029l216 110.4c6.4 3.429 11.429 8.457 15.086 14.629s5.486 13.029 5.486 20.343v240.457c0 8.229-2.286 16-7.086 22.857s-10.971 11.657-18.743 14.629zM1130.971 87.543l-216.686-98.514-216.914 96v37.714l216.914-91.429 216.686 93.943v-37.714zM1130.971 206.857l-216.686-98.971-216.914 98.971v41.829l216.914-91.2 216.686 92.571v-43.2z" />
<glyph unicode="&#xe624;" glyph-name="replicator" data-tags="replicator" d="M1.6 152.228v180.571c0 10.971 3.2 21.029 9.371 30.4s14.4 16.229 24.686 20.8l184.457 80.686v173.714c0 10.971 3.2 21.029 9.371 30.4s14.4 16.229 24.686 20.8l200.457 83.429c6.629 2.971 13.943 4.343 21.714 4.343s15.086-1.371 21.714-4.343l198.171-83.429c10.286-4.571 18.514-11.657 24.686-20.8 6.171-9.371 9.371-19.429 9.371-30.4v-173.714l186.057-80.686c10.514-4.571 18.743-11.657 24.914-20.8 6.171-9.371 9.143-19.429 9.143-30.4v-180.571c0-10.514-2.743-20.114-8.229-29.029s-13.029-15.771-22.629-20.343l-194.971-97.143c-7.314-4.114-15.543-6.171-24.914-6.171s-17.6 2.057-24.914 6.171l-195.2 97.143c-1.371 0.686-2.514 1.143-2.971 1.829-0.686-0.686-1.6-1.143-2.971-1.829l-195.657-97.143c-7.314-4.114-15.543-6.171-24.914-6.171s-17.6 2.057-24.914 6.171l-195.657 97.143c-9.6 4.571-17.143 11.429-22.629 20.343s-8.229 18.743-8.229 29.029zM76.571 341.257l176.457-75.2 176.457 75.2-176.457 75.2-176.457-75.2zM280.914 69.028l167.543 83.429v136.229l-167.543-71.086c0-0.229 0-148.571 0-148.571zM284.114 639.771l192.457-82.057 192.457 82.057-192.457 82.057-192.457-82.057zM504.457 393.143l167.543 71.543v115.429l-167.543-71.086v-115.886zM523.657 341.257l176.457-75.2 176.457 75.2-176.457 75.2-176.457-75.2zM728 69.028l167.543 83.429v136.229l-167.543-71.086v-148.571zM1160.457 476.8c-5.943 8.914-13.943 15.771-24.229 20.343l-186.057 78.4v168.457c0 10.743-2.971 20.571-9.143 29.486s-14.171 15.771-24 20.343l-187.657 80.914c-6.4 2.743-13.486 4.114-21.257 4.114-7.543 0-14.629-1.371-21.257-4.114l-119.086-51.429c6.629 2.743 13.714 4.343 21.257 4.343 7.771 0 14.857-1.371 21.257-4.343l201.6-86.4c10.057-4.571 18.057-11.429 24.229-20.343 6.171-9.143 9.143-18.971 9.143-29.714v-169.829l185.143-78.857c10.286-4.571 18.286-11.429 24.229-20.343 5.943-9.143 8.914-18.971 8.914-29.714v-176.686c0-10.286-2.743-19.657-8-28.343-1.143-1.829-2.514-3.657-3.886-5.486l87.086 46.4c9.371 4.571 16.686 11.2 21.943 19.886s8 18.057 8 28.343v175.314c0.686 10.514-2.286 20.343-8.229 29.257z" />
<glyph unicode="&#xe625;" glyph-name="route" data-tags="route" d="M1102.4 620.8l-150.4 146.971v-109.486h-146.743v-73.143h146.743v-109.714zM297.829 181.943l-150.4 146.971v-109.486h-146.743v-73.143h146.743v-109.714zM1021.486 440l-437.029-1.143v146.971h36.8l74.971 72.457h-111.771v137.829c0.914 0 2.057-0.229 2.971-0.229 24.686-18.286 47.086-39.543 67.2-63.314 17.6-20.8 33.371-43.886 47.314-68.571l62.171 60.114c-2.971 5.029-5.943 10.057-9.143 15.086 5.029-2.971 10.057-6.171 14.857-9.6l54.4 52.571 3.2 4.8c-13.029 9.371-26.743 18.286-40.914 26.743-72.686 42.514-152.229 63.771-238.4 63.771s-165.714-21.257-238.4-63.771c-72.686-42.514-130.286-100.114-172.8-172.8-42.514-73.143-63.771-152.686-63.771-238.857 0-12.343 0.457-24.457 1.371-36.343l437.486 0.686v-146.971h-35.657l-74.971-72.457h110.629v-138.971c-1.143 0-2.514 0.229-3.657 0.229-23.771 18.057-45.486 38.629-65.143 61.943-18.057 21.257-34.057 44.8-48.457 70.4l-62.171-60.114c3.2-5.486 6.4-10.743 9.6-16-5.257 3.2-10.514 6.629-15.771 10.057l-58.514-56.457c13.257-9.6 27.2-18.743 41.829-27.2 72.686-42.514 152.229-63.771 238.4-63.771s165.714 21.257 238.4 63.771c72.686 42.514 130.286 100.114 172.8 172.8s63.771 152.229 63.771 238.4c-0.229 12.8-0.686 25.371-1.6 37.943zM248.914 438.857h-94.857c3.657 40.457 13.714 79.314 29.714 116.8 4.571 10.286 9.371 20.343 14.4 30.171h75.2c-13.714-46.857-21.714-96-24.457-146.971zM299.657 658.286h-53.029c6.857 8.229 14.171 16 21.714 23.543 22.171 22.171 46.857 41.371 74.286 57.829-10.971-17.6-21.257-35.886-30.857-55.086-4.343-8.686-8.457-17.371-12.114-26.286zM512 438.857h-183.543c3.2 50.286 13.486 98.743 30.4 145.143 0.229 0.686 0.457 1.143 0.686 1.829h152.457v-146.971zM512 658.286h-120c14.857 27.429 32 52.571 51.2 75.429 19.657 23.314 41.6 44.114 65.6 62.171 1.143 0 2.057 0.229 3.2 0.229v-137.829zM654.629 69.028c-18.971-22.629-40-42.743-63.086-60.343-2.286-0.229-4.8-0.457-7.086-0.686v138.971h122.743c-15.314-28.571-32.914-54.4-52.571-77.943zM584.457 219.428v146.971h185.143c-3.2-50.971-13.257-99.886-30.171-146.971h-154.971zM827.886 122.286c-21.029-21.029-44.571-39.543-70.4-55.543 10.057 16.457 19.657 33.371 28.343 51.429 4.8 9.6 9.143 19.2 13.257 29.029h51.429c-7.086-8.686-14.629-17.143-22.629-24.914zM912.229 248.457c-4.343-10.057-8.914-19.657-13.714-29.029h-73.6c13.486 46.857 21.257 96 23.771 146.971h93.486c-3.657-40.686-13.486-80-29.943-117.943z" />
<glyph unicode="&#xe800;" glyph-name="builder-image" data-tags="builder-image" d="M1009.829 759.086c-9.371 13.486-21.943 23.086-37.486 28.8l-433.143 157.714c-8.686 3.2-17.371 4.8-26.057 4.8-0.229 0-0.457 0-0.686 0h-0.457c-0.229 0-0.457 0-0.686 0-8.686-0.229-17.371-1.829-26.057-4.8l-432.914-157.486c-15.543-5.714-28.114-15.314-37.486-28.8s-14.171-28.571-14.171-44.8v-472.686c0-14.4 3.657-27.657 10.971-40s17.371-21.943 30.171-29.029l433.143-236.114c11.2-6.4 23.314-9.6 36.343-9.829 0.229 0 0.457 0 0.686 0h0.457c0.229 0 0.457 0 0.686 0 13.029 0.229 25.143 3.429 36.343 9.829l433.371 236.343c12.8 6.857 22.857 16.686 30.171 29.029s10.971 25.6 10.971 40v472.229c0 16.457-4.8 31.314-14.171 44.8zM512 857.6l386.057-142.171-386.057-140.114-379.886 139.886 379.886 142.4zM438.857 337.143c-53.486 21.257-235.657 93.486-318.171 126.4l219.2 75.429 98.971-35.657v-166.171zM585.143 503.086l99.657 35.886 219.2-75.429c-82.971-32.914-266.286-105.829-318.857-126.629v166.171zM73.143 632l156.8-53.257-156.8-53.029v106.286zM73.143 375.543l120.686-49.829-120.686-40.457v90.286zM292.114 281.828l146.743-65.6v-153.6l-308.343 166.857 161.6 52.343zM585.143 62.4v153.829l147.429 65.829 161.6-52.114-309.029-167.543zM951.314 286.4l-120.457 39.314 120.457 50.971v-90.286zM951.314 526.857l-156.571 51.657 156.571 54.4v-106.057z" />
<glyph unicode="&#xe900;" glyph-name="trend-down" data-tags="trend-down" d="M1024 130.235v405.353c-0.311 14.638-6.224 29.271-16.809 39.858-10.587 10.585-24.907 16.187-39.541 16.498l-46.699 0.002c-14.946 0-29.573-5.915-40.162-16.503-10.585-10.585-16.503-25.221-16.187-39.856l-0.315-182.281-331.95 331.952c-7.767 7.767-19.719 7.767-27.488 0l-139.253-139.255-248.624 248.617-114.75-114.743 349.625-349.63c7.771-7.769 19.723-7.769 27.493 0l133.55 133.55 231.847-230.51-182.75-0.313c-14.638 0.313-29.271-5.605-39.856-16.19-10.585-10.587-16.501-25.221-16.19-39.856v-46.697c0-14.942 5.605-29.266 16.19-39.851 10.585-10.587 25.216-16.503 40.16-16.503h405.353c14.185-0.304 28.066 5.554 38.546 15.554 4.011 2.238 7.065 5.874 8.581 10.306 5.904 9.035 9.23 19.598 9.23 30.496z" />
<glyph unicode="&#xe901;" glyph-name="trend-up" data-tags="trend-up" d="M1014.775 778.658c-1.515 4.432-4.569 8.071-8.581 10.306-10.48 10-24.361 15.858-38.546 15.554l-405.353-0.002c-14.944 0-29.575-5.915-40.16-16.501s-16.19-24.907-16.19-39.851v-46.697c-0.311-14.633 5.605-29.266 16.19-39.854 10.585-10.585 25.216-16.501 39.854-16.19l182.75-0.311-231.847-230.51-133.55 133.55c-7.769 7.769-19.721 7.769-27.493 0l-349.625-349.63 114.75-114.745 248.624 248.619 139.253-139.255c7.769-7.767 19.721-7.767 27.49 0l331.947 331.95 0.313-182.281c-0.313-14.633 5.605-29.269 16.19-39.854 10.587-10.587 25.216-16.503 40.162-16.503l46.699 0.002c14.631 0.311 28.953 5.913 39.538 16.498 10.587 10.587 16.501 25.218 16.811 39.856v405.355c0 10.898-3.326 21.461-9.227 30.491z" />
<glyph unicode="&#xe902;" glyph-name="build" data-tags="build" d="M1010.971 279.771c-9.371 13.486-21.943 23.314-37.486 29.029l-30.171 10.971-129.829-51.886 85.714-31.771-384.229-140.343-0.914 0.229-382.171 139.657 83.2 31.086-132.8 53.029-30.171-10.971c-15.543-5.714-28.114-15.314-37.486-29.029-8.229-11.886-13.029-24.914-13.943-39.086h-0.229v-12.343l0.457-0.229c1.143-11.657 4.571-22.4 10.743-32.686 7.314-12.343 17.371-21.943 30.171-29.029l433.6-174.857c11.2-6.4 23.314-9.6 36.571-9.829v0c0.229 0 0.457 0 0.686 0 0 0 0.229 0 0.229 0s0.229 0 0.229 0 0.457 0 0.686 0v0c13.029 0.229 25.371 3.429 36.571 9.829l433.829 175.086c12.8 7.086 22.857 16.686 30.171 29.029 6.171 10.286 9.6 21.029 10.743 32.686l0.457 0.229v15.086l-0.457-0.229c-1.829 13.029-6.4 25.143-14.171 36.343zM1010.971 520.914c-9.371 13.486-21.943 23.314-37.486 29.029l-30.171 10.971-129.829-51.886 85.714-31.771-384.229-140.343-0.914 0.229-382.171 139.657 83.2 31.086-132.8 52.8-30.171-10.971c-15.543-5.714-28.114-15.314-37.486-29.029-8.229-11.886-13.029-24.914-13.943-39.086h-0.229v-12.343l0.457-0.229c1.143-11.657 4.571-22.4 10.743-32.686 7.314-12.343 17.371-21.943 30.171-29.029l433.6-174.629c11.2-6.4 23.314-9.6 36.571-9.829v0c0.229 0 0.457 0 0.686 0 0 0 0.229 0 0.229 0s0.229 0 0.229 0 0.457 0 0.686 0v0c13.029 0.229 25.371 3.429 36.571 9.829l433.829 175.086c12.8 7.086 22.857 16.686 30.171 29.029 6.171 10.286 9.6 21.029 10.743 32.686l0.457 0.229v14.857l-0.457-0.229c-1.829 13.257-6.4 25.371-14.171 36.571zM780.571 675.2l-115.886-42.514 31.771-87.543 98.057 35.429-0.457 0.229 18.286 6.629zM359.314 633.6l-115.886 42.514-32.229-89.143 116.114-42.057zM1024.686 722.743c-1.371 13.029-5.943 25.371-13.714 36.571-9.371 13.486-21.943 23.314-37.486 29.029l-433.829 157.714c-8.686 3.2-17.371 4.8-26.057 4.8v0c-0.229 0-0.457 0-0.686 0 0 0-0.229 0-0.229 0s-0.229 0-0.229 0-0.457 0-0.686 0v0c-8.686-0.229-17.371-1.829-26.057-4.8l-433.829-157.714c-15.314-5.943-27.886-15.543-37.486-29.029-8.229-12.114-12.8-25.143-13.943-39.314h-0.229v-12.343l0.457-0.229c1.143-11.657 4.571-22.4 10.743-32.686 7.314-12.343 17.371-21.943 30.171-29.029l98.743-39.771 0.229 0.686 32.229 89.371 4.8 1.829-45.943 16.686 383.086 142.629 384.229-142.4-50.057-18.286 2.057-1.829 31.771-88 2.057-1.371 98.971 40c12.8 7.086 22.857 16.686 30.171 29.029 6.171 10.286 9.6 21.029 10.743 32.686l0.457 0.229v15.086l-0.457 0.457zM512.229 577.828l-82.514 30.171-32-88.457 32.914-11.886h-1.829l44.114-17.829c11.2-6.4 23.314-9.6 36.571-9.829v0c0.229 0 0.457 0 0.686 0 0 0 0.229 0 0.229 0s0.229 0 0.229 0 0.457 0 0.686 0v0c13.029 0.229 25.371 3.429 36.571 9.829l44.114 17.829 34.286 12.343-32 87.086-81.143-29.714-0.914 0.457z" />
<glyph unicode="&#xe903;" glyph-name="cloud-security" data-tags="cloud-security" horiz-adv-x="1097" d="M548.343 597.257c-22.4 0-41.6-8-57.371-23.771s-23.771-34.971-23.771-57.371v-60.8h162.057v60.8c0 22.4-8 41.6-23.771 57.371-15.543 16-34.743 23.771-57.143 23.771zM1049.143 427.657c-32 39.771-72.686 65.371-121.829 76.8 15.543 24 23.314 50.286 23.314 78.857 0 40.457-14.171 74.971-42.971 103.543-28.114 28.571-62.629 42.971-103.086 42.971-36.571 0-68.114-11.886-94.857-35.429-22.4 54.171-58.286 97.829-107.2 131.429s-103.543 50.286-163.657 50.286c-80.686 0-149.714-28.571-206.857-85.714s-85.714-126.171-85.714-206.857c0-5.714 0.457-13.943 1.143-24.686-44.114-20.571-79.771-51.657-106.971-93.486-26.971-41.6-40.457-87.543-40.457-137.829 0-70.4 25.143-130.743 75.2-180.8s110.4-75.2 180.8-75.2h621.714c60.571 0 112.229 21.486 155.2 64.229 42.971 42.971 64.229 94.629 64.229 155.2 0 51.429-16 96.914-48 136.686zM730.743 250.057c0-8.457-2.971-15.543-8.914-21.486s-13.029-8.914-21.486-8.914h-304c-8.457 0-15.543 2.971-21.486 8.914s-8.914 13.029-8.914 21.486v175.314c0 8.457 2.971 15.543 8.914 21.486s13.029 8.914 21.486 8.914h10.057v60.8c0 38.857 13.943 72 41.829 99.886s61.257 41.829 100.114 41.829 72.229-13.943 100.114-41.829c27.886-27.886 41.829-61.029 41.829-99.886v-60.8h10.057c8.457 0 15.543-2.971 21.486-8.914s8.914-13.029 8.914-21.486v-175.314z" />
<glyph unicode="&#xe904;" glyph-name="cloud-tenant" data-tags="cloud-tenant" horiz-adv-x="1097" d="M1041.6 471.771c-29.486 33.371-68.571 63.543-141.714 89.143 41.143 96 0.457 151.314-28.343 179.886-28.114 28.571-62.629 42.971-103.086 42.971-36.571 0-68.114-11.886-94.857-35.429-0.457 0.686-0.914 1.371-1.371 1.829l-73.371-544.457-453.029 353.6c-43.657-20.571-79.086-51.429-106.057-93.029s-40.457-87.543-40.457-137.829c0-70.4 25.143-130.743 75.2-180.8s110.4-75.2 180.8-75.2h621.714c60.571 0 112.229 21.486 155.2 64.229 42.971 42.971 64.229 105.6 64.229 155.2 0 24.686 10.971 105.829-54.857 179.886zM132.114 655.314l421.486-329.143 68.343 506.743c-74.286 102.629-162.286 117.943-217.829 117.943-74.971 0-139.429-26.514-192.457-79.771s-79.771-117.486-79.771-192.457c0-5.257 0.457-13.029 1.143-22.857-0.229-0.229-0.686-0.229-0.914-0.457z" />
<glyph unicode="&#xe905;" glyph-name="project" data-tags="pficon-project" d="M367.982-71.022l-2.267 217.307c-47.47 43.447-72.411 89.673-72.411 181.175v0 0c-0.805 110.665 38.107 257.682 183.223 257.682h71.461c146.651 0.219 182.199-146.286 183.15-257.17v0c0-91.721-20.846-136.85-70.656-182.418v0l-2.267-216.137zM658.286 768c0-80.823-65.536-146.359-146.359-146.359s-146.359 65.536-146.359 146.359c0 80.823 65.536 146.359 146.359 146.359s146.359-65.536 146.359-146.359zM292.571 695.15c0-60.709-49.225-109.861-109.861-109.861s-109.861 49.225-109.861 109.861c0 60.709 49.225 109.861 109.861 109.861s109.861-49.225 109.861-109.861zM292.864-0.293l0.439 146.871c0 0-74.825 41.326-75.922 183.223v0 0 0 0c-1.024 79.36 14.19 151.040 75.776 218.917h-89.673c-203.483-0.146-199.461-114.395-200.997-193.024 1.317-65.902-0.805-136.558-0.805-136.558l1.682-219.136zM951.223 695.15c0-60.709-49.225-109.861-109.861-109.861s-109.861 49.225-109.861 109.861c0 60.709 49.225 109.861 109.861 109.861s109.861-49.225 109.861-109.861zM733.403-0.293l-0.439 146.871c0 0 71.826 63.781 73.582 183.223v0 0 0 0c1.024 79.36-11.922 151.040-73.509 218.917v0h87.406c203.483-0.146 201.728-114.395 203.337-193.024-1.317-65.902-0.439-136.558-0.439-136.558l0.658-219.136z" />
<glyph unicode="&#xe906;" glyph-name="enterprise" data-tags="enterprise" d="M511.543 950.857h-73.143l-438.4-109.714v-772.571l584.457-141.714h73.143l365.257 146.286v768l-511.314 109.714zM584.686 4.571l-73.143 17.371v109.486l-365.486 88v-111.086l-72.914 17.371v624.229l511.543-113.6v-631.771zM949.714 122.743l-73.143-29.257v86.171l-146.057-57.6v-87.086l-73.143-29.257v616l292.343 112.686v-611.657zM146.057 512l365.486-82.286v147.429l-365.486 81.143zM146.057 292.571l365.486-86.857v147.429l-365.486 85.714zM876.8 618.514l-146.286-57.6v-146.286l146.286 57.6zM876.8 399.086l-146.286-57.6v-146.286l146.286 57.6z" />
<glyph unicode="&#xe907;" glyph-name="flavor" data-tags="flavor" d="M56.229 804.8h-36.114c-10.057 0-19.2-9.6-19.2-19.886v-110.629l-0.229-584.229c0-10.057 9.371-16.914 19.2-16.914h36.114c10.057 0 17.143 6.857 17.143 16.914v694.857c0 10.057-7.086 19.886-16.914 19.886zM1006.857 804.8h-36.114c-10.057 0-19.2-9.6-19.2-19.886v-110.629l-0.229-584.229c0-10.057 9.371-16.914 19.2-16.914h36.114c10.057 0 17.143 6.857 17.143 16.914v694.857c0 10.057-7.086 19.886-16.914 19.886zM389.029 585.143h48.914v-74.057h-48.914v74.057zM841.6 877.257h-659.2c-20.571 0-35.886-17.829-35.886-38.4v-802.514c0-20.571 15.314-36.114 35.886-36.114h659.429c20.571 0 35.886 17.829 35.886 38.4v802.514c-0.229 20.571-15.543 36.114-36.114 36.114zM659.2 249.371h-58.743v-58.743h58.743v-58.971h-58.743v-58.743h-58.971v58.743h-58.743v-58.743h-58.743v58.743h-58.743v58.971h58.743v58.743h-58.743v58.743h58.743v58.743h58.743v-58.743h58.743v58.743h58.971v-58.743h58.743v-58.743zM731.886 585.371h-54.4v-146.514h-332.114v146.514h-54.629v220.343h441.143v-220.343zM486.857 585.143h48.914v-74.057h-48.914v74.057zM584.914 585.143h48.914v-74.057h-48.914v74.057z" />
<glyph unicode="&#xe908;" glyph-name="memory" data-tags="memory" horiz-adv-x="1096" d="M1095.92 662.799v101.829c0 21.462-16.439 39.042-36.531 39.042l-1022.858-0.037c-20.092 0-36.531-17.58-36.531-39.042v-652.301c0-21.462 16.439-39.042 36.531-39.042l314.62-0.041c0 0 12.557 2.511 12.557 14.612v133.337h75.801v-132.424c0 0-0.685-15.526 9.818-15.526l610.062 0.078c20.092 0 36.531 17.58 36.531 39.042v371.699l-0.037 178.765 0.037 0.007zM145.666 150.607h-73.061v106.167h73.061v-106.167zM290.647 382.349c0-7.534-6.165-13.699-13.699-13.699h-118.725c-7.534 0-13.699 6.165-13.699 13.699v261.423c0 7.534 6.165 13.699 13.699 13.699h118.725c7.534 0 13.699-6.165 13.699-13.699v-261.423zM292.93 150.607h-75.344v106.167h75.344v-106.167zM510.973 382.349c0-7.534-6.165-13.699-13.699-13.699h-118.725c-7.534 0-13.699 6.165-13.699 13.699v261.423c0 7.534 6.165 13.699 13.699 13.699h118.725c7.534 0 13.699-6.165 13.699-13.699v-261.423zM582.892 150.607h-73.061v106.167h73.061v-106.167zM584.034 382.349v261.423c0 7.534 6.165 13.699 13.699 13.699h118.725c7.534 0 13.699-6.165 13.699-13.699v-261.423c0-7.534-6.165-13.699-13.699-13.699h-118.725c-7.534 0-13.699 6.165-13.699 13.699zM731.298 150.607h-75.344v106.167h75.344v-106.167zM876.279 150.607h-75.344v106.167h75.344v-106.167zM950.482 382.349c0-7.534-6.165-13.699-13.699-13.699h-118.725c-7.534 0-13.699 6.165-13.699 13.699v261.423c0 7.534 6.165 13.699 13.699 13.699h118.725c7.534 0 13.699-6.165 13.699-13.699v-261.423zM1022.402 150.607h-73.061v106.167h73.061v-106.167zM-0.457 657.47c40.64 0 75.344-51.143 75.344-91.783s-34.704-92.012-75.344-92.012v183.795zM1095.883 473.675c-40.64 0-76.678 51.143-76.678 91.783s33.905 91.783 76.678 91.783z" />
<glyph unicode="&#xe909;" glyph-name="network" data-tags="network" horiz-adv-x="1170" d="M1024 877.257h-877.714v-219.429h877.714v219.429zM949.257 731.428h-218.971v73.143h218.971v-73.143zM1080.457 276.114c-10.743 10.743-23.543 16-38.857 16h-54.857v146.057c0 19.886-7.314 36.8-21.714 51.429-14.4 14.4-31.543 21.714-51.429 21.714h-291.886v110.4h-73.143v-110.629h-292.343c-19.886 0-36.8-7.314-51.429-21.714-14.4-14.4-21.714-31.543-21.714-51.429v-146.057h-54.857c-15.314 0-28.114-5.257-38.857-16s-16-23.543-16-38.857v-182.629c0-15.314 5.257-28.114 16-38.857s23.543-16 38.857-16h182.629c15.314 0 28.114 5.257 38.857 16s16 23.543 16 38.857v182.629c0 15.314-5.257 28.114-16 38.857s-23.543 16-38.857 16h-54.857v146.057h292.571v-146.057h-54.857c-15.314 0-28.114-5.257-38.857-16s-16-23.543-16-38.857v-182.629c0-15.314 5.257-28.114 16-38.857s23.543-16 38.857-16h182.629c15.314 0 28.114 5.257 38.857 16s16 23.543 16 38.857v182.629c0 15.314-5.257 28.114-16 38.857s-23.543 16-38.857 16h-54.857v146.057h292.343v-146.057h-54.857c-15.314 0-28.114-5.257-38.857-16s-16-23.543-16-38.857v-182.629c0-15.314 5.257-28.114 16-38.857s23.543-16 38.857-16h182.629c15.314 0 28.114 5.257 38.857 16s16 23.543 16 38.857v182.629c0 15.314-5.257 28.343-16 39.086z" />
<glyph unicode="&#xe90a;" glyph-name="regions" data-tags="regions" horiz-adv-x="1170" d="M585.371 293.486c-90.057 0-174.4 8-252.8 24.457-78.4 16.229-140.114 40.457-185.143 72.457v-97.143c0-26.286 19.657-50.743 58.743-73.143s92.343-40.229 159.771-53.257c67.2-13.029 140.571-19.657 219.657-19.657s152.229 6.629 219.657 19.657c67.2 13.029 120.686 30.857 159.771 53.257 39.086 22.629 58.743 46.857 58.743 73.143v97.143c-45.486-32-107.2-56-185.6-72.457-78.4-16.229-162.743-24.457-252.8-24.457zM585.371 74.286c-90.057 0-174.4 8-252.8 24.457-78.4 16.229-140.114 40.457-185.143 72.457v-97.143c0-26.286 19.657-50.743 58.743-73.143s92.343-40.229 159.771-53.257c67.2-13.029 140.571-19.657 219.657-19.657s152.229 6.629 219.657 19.657c67.2 13.029 120.686 30.857 159.771 53.257 39.086 22.629 58.743 46.857 58.743 73.143v97.143c-45.486-32-107.2-56-185.6-72.457-78.4-16.229-162.743-24.457-252.8-24.457zM585.371 512.686c-90.057 0-174.4 8-252.8 24.457-78.4 16.229-140.114 40.457-185.143 72.457v-97.143c0-26.286 19.657-50.743 58.743-73.143s92.343-40.229 159.771-53.257c67.2-13.029 140.571-19.657 219.657-19.657s152.229 6.629 219.657 19.657c67.2 13.029 120.686 30.857 159.771 53.257 39.086 22.629 58.743 46.857 58.743 73.143v97.143c-45.486-32-107.2-56-185.6-72.457-78.4-16.229-162.743-24.457-252.8-24.457zM965.029 877.943c-39.086 22.4-92.571 40.229-159.771 53.257s-140.571 19.657-219.657 19.657c-79.314 0-152.457-6.629-219.886-19.657-67.2-13.257-120.686-30.857-159.543-53.257-39.086-22.629-58.743-46.857-58.743-73.143v-73.143c0-26.286 19.657-50.743 58.743-73.143s92.571-40.229 159.771-53.257c67.2-13.029 140.571-19.657 219.657-19.657s152.457 6.629 219.657 19.657c67.2 13.029 120.686 30.857 159.771 53.257 39.086 22.629 58.743 46.857 58.743 73.143v73.143c0 26.286-19.657 50.743-58.743 73.143zM55.543 804.8h-36.114c-10.057 0-19.2-9.6-19.2-19.886v-110.629l-0.229-584.229c0-10.057 9.371-16.914 19.2-16.914h36.114c10.057 0 17.143 6.857 17.143 16.914v694.857c0 10.057-7.086 19.886-16.914 19.886zM1153.371 804.8h-36.114c-10.057 0-19.2-9.6-19.2-19.886v-110.629l-0.229-584.229c0-10.057 9.371-16.914 19.2-16.914h36.114c10.057 0 17.143 6.857 17.143 16.914v694.857c0 10.057-7.086 19.886-16.914 19.886z" />
<glyph unicode="&#xe90b;" glyph-name="repository" data-tags="repository" horiz-adv-x="1170" d="M758.857 438.857c25.143 0 45.714-38.629 45.714-38.629l22.857-34.514h50.286v182.857c0 0-0.229 36.571-36.8 36.571-41.829 0-292.571 0-292.571 0l-25.829 40.686c0 0-15.086 32.457-47.086 32.457-36.571 0-121.6 0-146.286 0-36.571 0-36.571-36.571-36.571-36.571v-402.286h146.286v146.286c0 57.143 16 73.143 75.429 73.143 0 0 219.429 0 244.571 0zM539.2 731.428c25.143 0 45.714-38.629 45.714-38.629l22.857-34.514h50.286v182.857c0 0-0.229 36.571-36.8 36.571-41.829 0-292.571 0-292.571 0l-25.829 40.686c0 0-15.086 32.457-47.086 32.457-36.343 0-121.371 0-146.057 0-36.571 0-36.571-36.571-36.571-36.571v-402.286h146.057v146.286c0 57.143 16 73.143 75.429 73.143 0 0 219.429 0 244.571 0zM1060.343 292.571c-41.829 0-292.571 0-292.571 0l-25.829 40.686c0 0-15.086 32.457-47.086 32.457-36.571 0-121.6 0-146.286 0-36.571 0-36.571-36.571-36.571-36.571v-402.286h585.143v329.143c0 0-0.229 36.571-36.8 36.571z" />
<glyph unicode="&#xe90c;" glyph-name="resource-pool" data-tags="resource-pool" horiz-adv-x="1096" d="M1020.571 804.571v91.429c0 30.171-24.686 54.857-54.629 54.857h-838.171c-29.943 0-54.629-24.686-54.629-54.857v-693.486c0-30.171 24.686-54.857 54.629-54.857h18.514l0.914-1.143v-219.429h803.886v219.429l0.686 1.143h14.171c30.171 0 54.629 24.686 54.629 54.857v64.229l1.143 2.057v535.771h-1.143zM293.029 0h-72.914v146.286h72.914v-146.286zM438.629 0h-72.914v146.286h72.914v-146.286zM584.457 0h-72.914v146.286h72.914v-146.286zM730.286 0h-72.914v146.286h72.914v-146.286zM800.914 660.571v0h-73.143v-73.143h72.914v-73.143h-72.914v-73.143h72.914v-73.143h-72.914v-73.143h-72.914v73.143h-72.914v-73.143h-72.914v73.143h-72.914v-73.143h-72.686v73.143h-72.914v73.143h72.914v73.143h-72.914v73.143h72.914v73.143h-72.914v73.143h72.914v73.143h72.914v-73.143h72.914v73.143h72.914v-73.143h72.914v73.143h72.914v-73.143h72.914v-73.143zM875.886 0h-72.914v146.286h72.914v-146.286z" />
<glyph unicode="&#xe90d;" glyph-name="server" data-tags="server" d="M986.057 145.828h-949.714c-9.829 0-18.286-3.429-25.6-10.743-7.086-7.086-10.743-15.771-10.743-25.6v-146.057c0-10.057 3.657-18.514 10.971-25.6 7.086-7.086 15.771-10.743 25.6-10.743h949.943c9.829 0 18.286 3.429 25.6 10.743 7.086 7.086 10.743 15.771 10.743 25.6v146.057c0 9.829-3.657 18.514-11.2 25.6-7.086 7.086-15.771 10.743-25.6 10.743zM949.714 0h-365.257v73.143h365.257v-73.143zM1011.886 719.771c-7.086 7.086-15.771 10.743-25.6 10.743h-949.714c-9.829 0-18.286-3.657-25.6-10.971-7.086-7.086-10.743-15.771-10.743-25.6v-146.057c0-9.829 3.429-18.286 10.743-25.6 7.086-7.086 15.771-10.743 25.6-10.743h949.943c9.829 0 18.286 3.429 25.6 10.743 7.086 7.086 10.743 15.771 10.743 25.6v146.057c0 9.829-3.657 18.286-10.971 25.829zM949.714 584.228h-219.2v73.143h219.2v-73.143zM986.286 437.943h-949.714c-9.829 0-18.286-3.429-25.6-10.743-7.086-7.086-10.743-15.771-10.743-25.6v-146.057c0-9.829 3.429-18.286 10.743-25.6 7.086-7.086 15.771-10.743 25.6-10.743h949.943c9.829 0 18.286 3.429 25.6 10.743 7.086 7.086 10.743 15.771 10.743 25.6v146.057c0 10.057-3.657 18.514-10.971 25.6-7.086 7.086-15.771 10.743-25.6 10.743zM949.714 292.114h-584.457v73.143h584.457v-73.143zM33.6 767.314h956.114c33.829 0 41.143 29.943 24.686 46.4s-99.429 101.714-114.286 116.571-32 20.571-48 20.571c-6.629 0-126.629 0-265.371 0-49.6 0-101.257 0-150.629 0-138.743 0-258.743 0-265.371 0-16 0-33.143-5.714-48-20.571s-97.829-100.114-114.286-116.571-9.143-46.4 25.143-46.4z" />
<glyph unicode="&#xe90e;" glyph-name="storage-domain" data-tags="storage-domain" horiz-adv-x="1097" d="M58.743 658.514c39.086-22.4 92.571-40.229 159.771-53.257s140.571-19.657 219.657-19.657c79.086 0 152.457 6.629 219.657 19.657s120.686 30.857 159.771 53.257c39.086 22.629 58.743 46.857 58.743 73.143v73.143c0 26.286-19.657 50.743-58.743 73.143s-92.571 40.229-159.771 53.257c-67.2 13.029-140.571 19.657-219.657 19.657-79.314 0-152.457-6.629-219.886-19.657-67.2-13.257-120.686-30.857-159.543-53.257-39.086-22.629-58.743-46.857-58.743-73.143v-73.143c0-26.286 19.657-50.743 58.743-73.143zM1075.429 8.914l-134.171 88.457c-13.257 9.371-26.743 13.029-37.257 11.657-0.457 0-0.914-0.229-1.371-0.229 24.686 37.257 36.571 82.971 30.857 130.514-12.8 106.286-109.486 181.943-215.771 168.914s-181.943-109.486-169.143-215.771 109.486-181.943 215.771-168.914c47.771 5.714 89.143 28.571 119.314 61.257 0.914-10.971 7.771-23.771 20.571-34.971l118.171-108.8c10.743-9.371 24-13.257 36.571-11.657 10.743 1.371 21.029 6.629 28.114 15.771 15.314 19.657 10.286 48.457-11.657 63.771zM756.8 87.543c-70.857-8.686-135.543 41.829-144 112.686s41.829 135.543 112.686 144 135.543-41.829 144-112.686-41.829-135.314-112.686-144zM58.743 439.314c39.086-22.4 92.343-40.229 159.771-53.257 67.2-13.029 140.571-19.657 219.657-19.657 26.971 0 53.029 0.686 78.629 2.286 42.514 62.4 110.629 106.743 191.543 116.571 50.743 6.171 99.886-2.057 143.314-21.486 16.457 15.543 24.686 31.543 24.686 48.686v97.143c-45.486-32-107.2-56-185.6-72.457-78.4-16.229-162.743-24.457-252.8-24.457s-174.4 8-252.8 24.457c-78.4 16.229-140.114 40.457-185.143 72.457v-97.143c0-26.286 19.657-50.743 58.743-73.143zM58.743 220.114c39.086-22.4 92.343-40.229 159.771-53.257 67.2-13.029 140.571-19.657 219.657-19.657 13.486 0 26.971 0.229 40.229 0.686-2.971 11.429-5.257 23.086-6.629 35.2-4.8 38.4-1.143 76.114 9.371 111.086-14.171-0.457-28.571-0.686-43.2-0.686-90.057 0-174.4 8-252.8 24.457-78.4 16.229-140.114 40.457-185.143 72.457v-97.143c0-26.286 19.657-50.743 58.743-73.143zM508.571 75.886c-23.086-1.143-46.629-1.829-70.4-1.829-90.057 0-174.4 8-252.8 24.457-78.4 16.229-140.114 40.457-185.143 72.457v-97.143c0-26.286 19.657-50.743 58.743-73.143s92.343-40.229 159.771-53.257c67.2-13.029 140.571-19.657 219.657-19.657s152.229 6.629 219.657 19.657c6.857 1.371 13.486 2.743 20.114 4.114-71.086 17.143-132.343 62.171-169.6 124.343z" />
<glyph unicode="&#xe90f;" glyph-name="virtual-machine" data-tags="virtual-machine" horiz-adv-x="1170" d="M73.143 950.857h-73.143v-73.143c0-4.571 0-7.543 0-7.543h73.143v80.686zM0 801.6h73.143v-137.143h-73.143v137.143zM0 390.171v-24.914h73.143c21.486 0 39.086 0 39.086 0v73.143h-112.229v-48.229zM0 595.886h73.143v-137.143h-73.143v137.143zM536.457 950.857h137.143v-73.143h-137.143v73.143zM330.743 950.857h137.143v-73.143h-137.143v73.143zM742.171 950.857h137.143v-73.143h-137.143v73.143zM125.029 950.857h137.143v-73.143h-137.143v73.143zM797.943 438.4h81.371v-73.143h-81.371v73.143zM806.171 626.743h73.143v-137.143h-73.143v137.143zM386.514 438.4h137.143v-73.143h-137.143v73.143zM592.229 438.4h137.143v-73.143h-137.143v73.143zM1014.171 804.571h-134.857v27.886h-73.143v-27.886h-659.657v-181.943h-0.229v-477.714h0.229v-72h438.857v-72.914h-219.886v-73.143h585.829v72.914h-219.886v72.914l438.857 0.229v731.657h-156.114zM1024.229 219.886h-730.971v145.371h24.686v73.143h-24.686v184.229h-0.686v35.2h731.657v-437.943z" />
<glyph unicode="&#xe910;" glyph-name="volume" data-tags="volume" d="M890.743 804.8c-39.086 22.4-92.571 40.229-159.771 53.257s-140.571 19.657-219.657 19.657c-79.314 0-152.457-6.629-219.886-19.657-67.2-13.257-120.686-30.857-159.543-53.257-39.086-22.629-58.743-46.857-58.743-73.143v-148.571c0-26.286 19.657-50.743 58.743-73.143s92.571-40.229 159.771-53.257c67.2-13.029 140.571-19.657 219.657-19.657s152.457 6.629 219.657 19.657c67.2 13.029 120.686 30.857 159.771 53.257 39.086 22.629 58.743 46.857 58.743 73.143v148.571c0 26.286-19.657 50.743-58.743 73.143zM511.086 364.114c-90.057 0-174.4 8-252.8 24.457-78.4 16.229-140.114 40.457-185.143 72.457v-243.429c0-26.286 19.657-50.743 58.743-73.143s92.343-40.229 159.771-53.257c67.2-13.029 140.571-19.657 219.657-19.657s152.229 6.629 219.657 19.657c67.2 13.029 120.686 30.857 159.771 53.257 39.086 22.629 58.743 46.857 58.743 73.143v243.429c-45.486-32-107.2-56-185.6-72.457-78.4-16.229-162.743-24.457-252.8-24.457z" />
<glyph unicode="&#xe911;" glyph-name="zone" data-tags="zone" horiz-adv-x="1095" d="M984.457 804.571c-52.8 74.514-131.2 123.657-220.571 138.743-88.457 15.086-177.371-5.486-250.057-57.6-44.8-32-79.314-73.371-102.857-119.771-80.914 8-160.914-13.029-227.429-60.571-150.4-107.429-184.229-319.543-75.429-472.914 52.8-74.743 131.429-124.114 221.257-138.971 23.086-3.886 46.4-5.257 69.257-4.343 3.657-5.943 7.543-11.657 11.657-17.371 52.8-74.743 131.429-124.114 221.257-138.971 40.229-6.629 80.686-5.943 119.543 1.6 46.171 9.143 90.286 28.114 130.057 56.229 72.914 52.343 120.686 130.514 134.857 219.886 10.743 68.8 0.686 138.057-28.571 200 29.029 41.371 48.457 89.371 56.686 141.029 13.943 89.143-7.086 178.971-59.657 253.029zM556.571 826.057c30.629 21.943 64.914 36.571 101.029 43.657 30.629 5.943 62.4 6.4 93.943 0.914 70.171-11.657 131.429-50.286 172.8-108.571 60.8-85.943 64.686-195.429 19.2-281.6-52.343 64.914-125.257 107.886-207.771 121.829-23.314 3.886-46.857 5.257-69.943 4.343-3.657 5.943-7.543 11.886-11.657 17.6-42.286 59.657-100.8 102.857-168.229 125.486 17.6 29.257 41.371 55.314 70.629 76.343zM440.229 168.228c-31.086 74.971-26.286 159.086 10.514 228.114 40.686-51.2 94.4-88.686 155.429-109.257-17.6-29.257-41.143-55.314-70.4-76.343-29.029-20.571-61.486-34.971-95.543-42.514zM634.971 355.428c-54.857 17.371-102.4 52.114-136.686 100.114-0.686 0.914-1.143 1.829-1.829 2.743 9.6 9.6 20.343 18.743 31.771 26.743 29.029 20.8 61.486 34.971 95.543 42.514 22.857-55.543 26.057-116.343 11.2-172.114zM485.714 544.686c-8.229-5.943-16-11.886-23.543-18.514-17.143 50.971-18.514 105.143-5.257 155.2 50.514-15.771 94.629-46.171 128-88.229-34.971-10.286-68.571-26.514-99.2-48.457zM700.571 532.571c7.543-0.686 15.086-1.6 22.629-2.971 70.171-11.657 131.429-50.286 172.8-108.571 0.686-0.914 1.143-1.6 1.829-2.514-9.6-9.6-20.343-18.743-31.771-26.971-46.4-33.371-101.257-50.057-157.943-48.457 2.286 9.143 4.114 18.743 5.714 28.114 8.457 54.857 3.886 109.714-13.257 161.371zM341.486 165.943c-70.4 11.886-131.886 50.514-173.486 109.029-85.486 120.457-59.429 286.629 58.057 370.514 30.629 21.943 64.914 36.571 101.029 43.657 18.743 3.886 37.943 5.486 57.371 4.8-18.286-74.514-11.429-155.429 22.857-228.114-61.029-87.086-77.486-200-43.429-302.629-7.314 0.686-14.857 1.6-22.4 2.743zM837.714 50.514c-56.229-40.457-125.257-56.457-194.286-45.029-65.371 10.971-123.2 45.257-164.343 96.914 35.2 10.286 68.8 26.743 99.886 48.914 43.886 31.543 78.857 72.457 102.629 119.543 32.914-3.2 65.829-1.6 97.6 4.571 46.4 9.143 90.514 28.114 130.057 56.229 8 5.714 15.543 11.657 22.857 18.057 35.886-107.886 0.914-230.629-94.4-299.2z" />
<glyph unicode="&#xe912;" glyph-name="resources-almost-full" data-tags="resources-almost-full" d="M954.743 694.171c45.714-78.4 68.571-164.114 68.571-256.914s-22.857-178.514-68.571-256.914c-45.714-78.4-107.886-140.571-186.286-186.286s-164.114-68.571-256.914-68.571c-92.8 0-178.514 22.857-256.914 68.571s-140.571 107.886-186.286 186.286c-45.486 78.4-68.343 164.114-68.343 256.914s22.857 178.514 68.571 256.914c45.714 78.4 107.886 140.343 186.286 186.057s164.114 68.571 256.914 68.571c92.8 0 178.514-22.857 256.914-68.571 78.171-45.714 140.343-107.657 186.057-186.057zM677.257 829.714c-52.571 22.629-107.886 34.057-165.486 34.057-57.829 0-112.914-11.429-165.486-34.057s-97.829-53.029-136-90.971c-37.943-37.943-68.343-83.2-90.971-136-22.629-52.571-34.057-107.886-34.057-165.486 0-57.829 11.429-112.914 34.057-165.486s53.029-97.829 90.971-136c37.943-37.943 83.2-68.343 136-90.971 52.571-22.629 107.886-34.057 165.486-34.057 57.829 0 112.914 11.429 165.486 34.057s97.829 53.029 136 90.971c37.943 37.943 68.343 83.2 90.971 136 22.629 52.571 34.057 107.886 34.057 165.486 0 57.829-11.429 112.914-34.057 165.486s-53.029 97.829-90.971 136c-37.943 37.943-83.429 68.343-136 90.971zM217.143 585.143c-21.943-44.114-34.286-93.714-34.286-146.286 0-181.486 147.657-329.143 329.371-329.143 181.486 0 329.143 147.657 329.143 329.143 0 52.571-12.343 102.171-34.286 146.286h-589.943z" />
<glyph unicode="&#xe913;" glyph-name="warning-triangle" data-tags="pficon-warning-triangle-o" d="M511.488 949.321c6.656 0 13.093-0.878 19.456-2.487s12.142-4.169 17.481-7.461c5.998-3.365 11.118-7.314 15.506-11.995s8.119-10.021 11.483-15.945l437.979-842.24c6.656-11.995 9.801-23.918 9.509-35.913s-3.877-23.918-10.459-35.913c-3.365-5.998-7.168-11.118-11.483-15.506s-9.509-8.192-15.506-11.483c-5.339-2.706-10.971-4.827-16.969-6.51s-12.288-2.487-18.944-2.487h-876.032c-6.656 0-12.946 0.805-18.944 2.487s-11.63 3.803-16.969 6.51c-5.998 3.291-11.118 7.095-15.506 11.483s-8.192 9.509-11.483 15.506c-6.656 11.995-10.094 23.918-10.459 35.913s2.779 23.918 9.509 35.913l437.979 842.24c3.291 5.998 7.095 11.264 11.483 15.945s9.509 8.631 15.506 11.995c5.339 3.291 11.118 5.778 17.481 7.461s12.8 2.487 19.456 2.487zM132.974 73.289h759.296l-380.782 741.595-378.514-741.595zM583.387 156.526c-2.121-5.632-7.534-9.509-13.97-9.509-14.263 0-28.526 0-42.715 0-21.138 0-42.277 0-63.415 0-11.045 0-24.576 0.585-24.576 14.994 0 0 0 44.325 0 44.544 0 8.558 6.437 14.994 14.994 14.994 0 0 115.712 0 115.785 0 8.485 0 14.994-6.437 14.994-14.994 0 0 0-44.544 0-44.544 0-1.975-0.366-3.803-1.024-5.486zM583.826 301.934c-2.121-5.632-7.534-9.509-13.97-9.509-14.263 0-28.526 0-42.715 0-21.138 0-42.277 0-63.415 0-11.045 0-24.576 0.585-24.576 14.994 0 0 0 224.914 0 225.134 0 8.558 6.437 14.994 14.994 14.994 0 0 115.712 0 115.785 0 8.485 0 14.994-6.437 14.994-14.994 0 0 0-225.134 0-225.134 0-1.975-0.366-3.803-1.024-5.486z" />
<glyph unicode="&#xe914;" glyph-name="private" data-tags="private" d="M954.514 695.314c-45.943 78.4-107.886 140.343-186.057 186.057s-163.657 68.571-256.457 68.571-178.286-22.857-256.457-68.571c-78.171-45.486-140.343-107.657-185.829-185.829-45.714-78.171-68.571-163.886-68.571-256.457s22.629-178.286 68.343-256.686c45.714-78.4 107.886-140.343 186.057-186.057s163.657-68.571 256.457-68.571 178.286 22.857 256.457 68.571c78.4 45.714 140.343 107.886 186.057 186.057s68.571 163.657 68.571 256.457c0 92.8-22.857 178.286-68.571 256.457zM809.143 252.8c0-29.943-11.657-58.286-32.914-79.543-21.029-21.257-49.371-32.914-79.543-32.914h-369.143c-30.171 0-58.286 11.657-79.543 32.914-21.257 21.029-32.914 49.371-32.914 79.543v209.143c0 29.943 11.657 58.286 32.914 79.543 7.314 7.314 15.314 13.257 24 18.286v6.629c0 64.686 24.457 123.429 70.629 169.6s104.914 70.629 169.6 70.629 123.429-24.457 169.371-70.629c46.171-46.171 70.629-104.914 70.629-169.6v-6.629c8.686-5.029 16.686-10.971 24-18.286 21.257-21.257 32.914-49.371 32.914-79.543v-209.143zM696.914 496.686h-21.943v69.714c0 44.571-16 82.743-48 114.743s-70.171 48-114.743 48-82.743-16-114.743-48-48-70.171-48-114.743v-69.714h-21.943c-9.6 0-17.829-3.429-24.686-10.057-6.857-6.857-10.057-15.086-10.057-24.686v-209.143c0-9.6 3.429-17.829 10.057-24.686 6.857-6.857 15.086-10.057 24.686-10.057h369.143c9.6 0 17.829 3.429 24.686 10.057 6.857 6.857 10.057 15.086 10.057 24.686v209.143c0 9.6-3.429 17.829-10.057 24.686-6.629 6.629-14.857 10.057-24.457 10.057zM419.429 496.686v69.714c0 25.6 9.143 47.543 27.2 65.6s40 27.2 65.6 27.2c25.6 0 47.543-9.143 65.6-27.2s27.2-40 27.2-65.6v-69.714h-185.6z" />
<glyph unicode="&#xe915;" glyph-name="blueprint" data-tags="blueprint" d="M78.629 225.143c-3.657 3.657-5.486 8-5.486 12.8v55.086h-73.143v-55.086c0-25.143 8.914-46.629 26.971-64.686 17.829-17.829 39.543-26.971 64.686-26.971h91.429v73.143h-91.657c-5.029 0.457-9.143 2.286-12.8 5.714zM997.257 705.143c-17.829 17.829-39.543 26.971-64.686 26.971h-621.714c-25.143 0-46.629-8.914-64.686-26.971-17.829-17.829-26.971-39.543-26.971-64.686v-621.943c0-25.143 8.914-46.629 26.971-64.686 17.829-17.829 39.543-26.971 64.686-26.971h621.943c25.143 0 46.629 8.914 64.686 26.971 17.829 17.829 26.971 39.543 26.971 64.686v621.943c-0.229 25.143-9.143 46.629-27.2 64.686zM951.086 18.514c0-5.029-1.829-9.143-5.486-12.8s-8-5.486-12.8-5.486h-621.943c-5.029 0-9.143 1.829-12.8 5.486s-5.486 8-5.486 12.8v621.943c0 5.029 1.829 9.143 5.486 12.8s8 5.486 12.8 5.486h621.943c5.029 0 9.143-1.829 12.8-5.486s5.486-8 5.486-12.8v-621.943zM0 512.686h73.143v-147.429h-73.143v147.429zM0 732.114h73.143v-147.429h-73.143v147.429zM73.143 859.886c0 5.029 1.829 9.143 5.486 12.8s8 5.486 12.8 5.486h55.314v73.143h-55.314c-25.143 0-46.629-8.914-64.686-26.971-17.829-17.829-26.743-39.314-26.743-64.457v-55.771h73.143v55.771zM218.971 951.314h147.429v-73.143h-147.429v73.143zM726.171 872.686c3.657-3.657 5.486-8 5.486-12.8v-91.429h73.143v91.429c0 25.143-8.914 46.629-26.971 64.686-17.829 17.829-39.543 26.971-64.686 26.971h-55.543v-73.143h55.543c5.029-0.229 9.371-2.057 13.029-5.714zM438.4 951.314h147.429v-73.143h-147.429v73.143z" />
<glyph unicode="&#xe916;" glyph-name="tenant" data-tags="tenant" d="M346.971 731.428c-35.657 0-65.829-12.343-90.743-37.257s-37.257-55.086-37.257-90.743 12.343-65.829 37.257-90.743c24.914-24.914 55.086-37.257 90.743-37.257s65.829 12.343 90.743 37.257c24.914 24.914 37.257 55.086 37.257 90.743s-12.343 65.829-37.257 90.743c-25.143 24.914-55.314 37.257-90.743 37.257zM676.571 731.428c-35.657 0-65.829-12.343-90.743-37.257-24.686-24.686-37.257-55.086-37.257-90.743s12.343-65.829 37.257-90.743c24.914-24.914 55.086-37.257 90.743-37.257s65.829 12.343 90.743 37.257c24.914 24.914 37.257 55.086 37.257 90.743s-12.343 65.829-37.257 90.743c-24.686 24.914-55.086 37.257-90.743 37.257zM742.171 538.286c-18.057-18.057-40-27.2-65.371-27.2s-47.314 9.143-65.371 27.2c-18.057 18.057-27.2 40-27.2 65.371s9.143 47.314 27.2 65.371c18.057 18.057 40 27.2 65.371 27.2s47.314-9.143 65.371-27.2c18.057-18.057 27.2-40 27.2-65.371s-8.914-47.314-27.2-65.371zM676.571 402.971c-35.657 0-65.829-12.343-90.743-37.257s-37.257-55.086-37.257-90.743c0-35.657 12.343-65.829 37.257-90.743s55.086-37.257 90.743-37.257 65.829 12.343 90.743 37.257c24.914 24.914 37.257 55.086 37.257 90.743s-12.343 65.829-37.257 90.743c-24.686 24.914-55.086 37.257-90.743 37.257zM742.171 209.6c-18.057-18.057-40-27.2-65.371-27.2s-47.314 9.143-65.371 27.2c-18.057 18.057-27.2 40-27.2 65.371s9.143 47.314 27.2 65.371c18.057 18.057 40 27.2 65.371 27.2s47.314-9.143 65.371-27.2c18.057-18.057 27.2-40 27.2-65.371s-8.914-47.314-27.2-65.371zM346.971 402.971c-35.657 0-65.829-12.343-90.743-37.257s-37.257-55.086-37.257-90.743c0-35.657 12.343-65.829 37.257-90.743s55.086-37.257 90.743-37.257c35.657 0 65.829 12.343 90.743 37.257s37.257 55.086 37.257 90.743c0 35.657-12.343 65.829-37.257 90.743s-55.086 37.257-90.743 37.257zM412.571 209.6c-18.057-18.057-40-27.2-65.371-27.2s-47.314 9.143-65.371 27.2c-18.057 18.057-27.2 40-27.2 65.371s9.143 47.314 27.2 65.371c18.057 18.057 40 27.2 65.371 27.2s47.314-9.143 65.371-27.2c18.057-18.057 27.2-40 27.2-65.371s-9.143-47.314-27.2-65.371zM954.743 695.543c-45.714 78.4-107.657 140.343-186.057 186.057s-163.886 68.571-256.686 68.571c-92.8 0-178.286-22.857-256.686-68.571s-140.343-107.657-186.057-186.057c-45.714-78.4-68.571-163.886-68.571-256.686s22.857-178.286 68.571-256.686 107.657-140.343 186.057-186.057 163.886-68.571 256.686-68.571c92.8 0 178.286 22.857 256.686 68.571s140.343 107.657 186.057 186.057 68.571 163.886 68.571 256.686c0 92.8-22.857 178.286-68.571 256.686zM904 273.371c-22.629-52.571-53.029-97.829-90.971-135.771s-83.2-68.343-135.771-90.971c-52.571-22.629-107.657-34.057-165.486-34.057-57.6 0-112.914 11.429-165.486 34.057s-97.829 53.029-135.771 90.971c-37.943 37.943-68.343 83.2-90.971 135.771s-34.057 107.657-34.057 165.486c0 57.6 11.429 112.914 34.057 165.486s53.029 97.829 90.971 135.771c37.943 37.943 83.2 68.343 135.771 90.971s107.657 34.057 165.486 34.057c57.6 0 112.914-11.2 165.486-34.057 52.571-22.629 97.829-53.029 135.771-90.971s68.343-83.2 90.971-135.771c22.629-52.571 34.057-107.657 34.057-165.486 0-57.6-11.2-112.914-34.057-165.486z" />
<glyph unicode="&#xe917;" glyph-name="middleware" data-tags="middleware" d="M512 731.428c-161.371 0-292.571-131.2-292.571-292.571s131.2-292.571 292.571-292.571 292.571 131.2 292.571 292.571-131.2 292.571-292.571 292.571zM916.571 125.486c49.371 63.543 84.114 138.971 98.971 221.257 1.829 9.829-5.714 18.971-15.771 18.971h-79.314c-7.543 0-13.943-5.257-15.543-12.571-33.371-153.371-154.743-274.286-308.114-307.429-7.314-1.6-12.8-8-12.8-15.543v-79.543c0-10.057 9.143-17.6 18.971-15.771 82.286 14.629 157.714 49.371 221.257 98.286 6.4 5.029 15.314 4.343 21.029-1.371l100.343-100.343c2.971-2.971 7.086-4.8 11.2-4.8h51.2c8.914 0 16 7.086 16 16v48.914c0 4.343-1.6 8.229-4.8 11.2l-101.257 101.257c-5.714 6.171-6.171 15.086-1.371 21.486zM418.743 942.171c-81.6-15.086-156.8-49.6-219.886-98.971-6.4-5.029-15.543-4.343-21.257 1.371l-101.257 101.486c-3.2 3.2-7.086 4.8-11.429 4.8h-48.914c-8.914 0-16-7.086-16-16v-48.914c0-4.343 1.6-8.229 4.8-11.2l101.257-101.257c5.714-5.714 6.171-14.857 1.371-21.257-49.371-63.543-84.114-138.971-98.971-221.257-1.829-9.829 5.714-18.971 15.771-18.971h79.314c7.543 0 13.943 5.257 15.543 12.571 33.143 152.686 153.371 273.143 306.057 306.971 7.314 1.6 12.571 8 12.571 15.543v79.314c0 10.057-9.143 17.6-18.971 15.771zM920.457 512h79.314c10.057 0 17.6 9.143 15.771 18.971-14.857 81.6-49.371 156.571-98.057 220.114-5.029 6.4-4.343 15.314 1.371 21.029l100.343 100.114c2.971 2.971 4.8 7.086 4.8 11.429v51.2c0 8.914-7.086 16-16 16h-48.914c-4.343 0-8.229-1.6-11.2-4.8l-101.257-101.257c-5.714-5.714-14.857-6.171-21.257-1.371-63.543 49.371-138.971 84.114-221.257 98.971-9.829 1.829-18.971-5.714-18.971-15.771v-79.314c0-7.543 5.257-13.943 12.571-15.543 152.914-33.371 273.6-154.057 307.2-307.2 1.6-7.314 8-12.571 15.543-12.571zM103.543 365.714h-79.543c-10.057 0-17.6-9.143-15.771-18.971 14.857-82.286 49.6-157.714 98.971-221.257 5.029-6.4 4.343-15.543-1.371-21.257l-101.029-101.029c-3.2-3.2-4.8-7.086-4.8-11.429v-48.914c0-8.914 7.086-16 16-16h48.914c4.343 0 8.229 1.6 11.2 4.8l101.257 101.257c5.714 5.714 14.857 6.171 21.029 1.371 63.543-49.371 138.971-84.114 221.257-98.971 9.829-1.829 18.971 5.714 18.971 15.771v79.314c0 7.543-5.257 13.943-12.571 15.543-152.914 33.371-273.6 154.057-307.2 307.2-1.371 7.314-7.771 12.571-15.314 12.571z" />
<glyph unicode="&#xe918;" glyph-name="bundle" data-tags="Bundle" d="M348.571 721.371l1.143-322.743 317.029-56.457 164.114 94.629 0.229 304.229-319.543 49.371zM658.514 874.743l-228.343 27.2-158.171-43.657 240.686-33.371zM1021.257 829.486v0.229l-0.686-0.229-299.886 36.571-145.143-50.286 313.6-44.343-0.457-299.2 125.486 80.229 7.086 276.343 0.457 0.229zM885.486 122.971l121.371 116.343 6.629 245.257-124.8-84.343zM349.714 318.171l-1.371-296.914 314.057-94.4 167.771 155.657 0.457 281.829-163.886-107.886zM450.971 802.514l-239.771 35.2-208.457-60.114 11.657-315.886 271.086-50.286-2.743 325.257zM25.6 117.714l259.886-80.229v293.943l-270.171 54.857z" />
<glyph unicode="&#xe919;" glyph-name="domain" data-tags="domain" d="M866.971 522.743c7.086 7.086 10.743 15.771 10.743 25.829v365.486c0 9.829-3.657 18.286-10.971 26.057-7.086 7.086-15.771 10.743-25.829 10.743h-219.2c-9.829 0-18.286-3.657-25.829-10.971-7.086-7.086-10.743-15.771-10.743-25.829v-365.486c0-9.829 3.429-18.286 10.743-25.829 7.086-7.086 15.771-10.743 25.829-10.743h219.429c9.829 0 18.514 3.429 25.829 10.743zM804.571 658.286h-146.286v73.143h146.286v-73.143zM804.571 804.571h-73.143v73.143h73.143v-73.143zM548.343 438.857h-219.2c-9.829 0-18.286-3.657-25.829-10.971-7.086-7.086-10.743-15.771-10.743-25.6v-439.314c0-9.829 3.429-18.286 10.743-25.6 7.086-7.086 15.771-10.743 25.829-10.743h219.429c9.829 0 18.286 3.429 25.829 10.743 7.086 7.086 10.743 15.771 10.743 25.6v439.543c0 9.829-3.657 18.286-10.971 25.829-7.086 6.857-16 10.514-25.829 10.514zM512 146.286h-146.286v73.143h146.286v-73.143zM512 292.571h-73.143v73.143h73.143v-73.143zM512 0h-146.286v73.143h146.286v-73.143zM292.571 914.057c0 9.829-3.657 18.514-10.971 26.057-7.086 7.086-15.771 10.743-25.6 10.743h-219.886c-9.829 0-18.286-3.657-25.6-10.971-6.857-7.314-10.514-16-10.514-25.829v-292.343c0-9.829 3.429-18.514 10.743-25.829 7.086-7.086 15.771-10.743 25.6-10.743h220.114c9.829 0 18.286 3.429 25.6 10.743 7.086 7.086 10.743 15.771 10.743 25.829v292.343zM219.429 658.286h-146.286v73.143h146.286c0 0 0-73.143 0-73.143zM219.429 804.571h-73.143v73.143h73.143c0 0 0-73.143 0-73.143zM512 808v66.743c-0.457 0-1.143 0-1.6 0-50.743 0-99.429-8.686-144.686-24.457v-72c44.343 18.971 93.257 29.714 144.686 29.714 0.457 0 1.143 0 1.6 0zM150.857 512.228h-71.314c-4.114-24.229-6.4-49.371-6.4-74.971 0-129.829 56.457-246.4 146.286-326.4v107.429c-47.314 61.714-75.429 138.971-75.429 222.857 0 24.229 2.286 48 6.857 71.086zM804.571 222.628v-108.571c88 80 143.314 195.2 143.314 323.657 0 0.229 0 0.686 0 0.914h-70.857c-0.686-81.143-27.429-155.657-72.457-216zM950.857 878.857h73.143v-294.857h-73.143v294.857zM658.286 365.714h73.143v-365.714h-73.143v365.714z" />
<glyph unicode="&#xe91a;" glyph-name="server-group" data-tags="server group" d="M841.143 731.428h182.857v-731.429h-182.857v731.429zM695.086 731.428h-658.514c-9.829 0-18.514-3.657-25.6-10.743-7.314-7.543-10.971-16-10.971-25.829v-731.657c0-9.829 3.657-18.514 10.743-25.6 7.314-7.314 15.771-10.743 25.6-10.743h658.743c9.829 0 18.514 3.657 25.6 10.743 7.314 7.314 10.743 15.771 10.743 25.6v731.657c0 9.829-3.657 18.514-10.743 25.6-7.314 7.314-15.771 10.971-25.6 10.971zM658.286 73.143h-438.857v109.714h438.857v-109.714zM658.286 292.571h-585.143v109.714h585.143v-109.714zM658.286 512h-219.429v109.714h219.429v-109.714zM22.4 768h686.629c11.429 0 18.743 2.971 21.257 8.686 2.743 5.714-0.229 12.8-8.686 21.257 0 0-142.4 130.514-152.914 142.857s-24 9.829-24 9.829h-361.143c0 0-11.886 1.371-22.629-10.286-10.514-11.886-151.314-142.4-151.314-142.4-8.457-8.457-11.429-15.314-8.686-21.257s9.829-8.686 21.486-8.686zM767.314 951.314h-121.143l194.743-182.171 183.086-1.6z" />
<glyph unicode="&#xe91b;" glyph-name="degraded" data-tags="pficon-degraded" d="M957.257 568.457c-25.6-10.057-54.857-18.514-87.543-25.143-21.714-4.8-43.886-8.686-66.514-11.886l0.457-302.857c13.029 1.829 26.057 4.114 38.629 6.4 27.657 5.714 52.8 12.343 74.971 19.657s42.057 15.771 58.514 24.457c16 9.371 28.343 19.429 36.343 29.714 8 10.514 11.886 21.029 11.886 32.229v262.4c-18.743-13.257-41.143-24.914-66.743-34.971zM364.343 729.828v0h0.686c35.429 0 69.943-1.6 102.629-4.571 34.971-3.2 66.286-7.771 95.314-13.714v0 0c31.543-6.629 58.514-13.486 82.514-21.029l0.914-0.457c27.429-9.143 50.743-19.2 71.314-30.857l0.914-0.457c24-14.171 43.2-30.171 56.914-47.771 5.029-6.4 9.371-13.029 13.029-19.886 18.286 2.286 35.886 5.257 53.029 8.686 27.657 5.029 52.8 11.429 74.971 18.743s42.057 16 58.514 25.371c16 9.371 28.343 19.2 36.343 29.029s11.886 20.571 11.886 31.543v124.343c0 10.514-3.886 21.029-11.886 31.314s-20.343 20.343-36.343 29.714c-16.457 9.371-35.886 17.6-58.286 25.143-22.171 7.086-47.314 13.486-74.971 19.2-27.886 5.714-57.143 9.6-87.543 12.571s-62.629 4.114-96 4.114c-32.914 0-64.457-1.371-95.086-4.343s-60.114-7.086-88.457-12.571c-27.657-5.486-52.8-11.886-74.971-19.2s-41.6-15.771-57.6-25.143c-16.229-9.371-28.571-19.429-36.8-29.714s-12.571-20.8-12.571-31.314v-101.257c23.086 1.829 47.314 2.514 71.543 2.514zM664.686 266.743c-23.543-9.143-50.057-17.143-79.543-23.314v62.4c13.943 3.429 26.971 7.086 39.086 11.2 22.171 7.314 42.057 16 58.514 25.371 16 9.371 28.343 19.2 36.343 29.029s11.886 20.571 11.886 31.543v133.257c0 10.514-3.886 21.029-11.886 31.314s-20.343 20.343-36.343 29.714c-16.457 9.371-35.886 17.6-58.286 25.143-22.171 7.086-47.314 13.486-74.971 19.2-27.886 5.714-57.143 9.6-87.543 12.571s-62.629 4.343-96 4.343c-32.914 0-64.457-1.371-95.086-4.343s-60.343-7.086-88.457-12.571c-27.657-5.486-52.8-11.886-74.971-19.2s-41.6-15.771-57.6-25.143c-16.229-9.371-28.571-19.429-36.8-29.714s-12.571-20.8-12.571-31.314v-133.257c0-11.2 4.343-21.714 12.571-31.543 8.457-10.057 20.571-19.657 36.8-29.029s35.429-18.057 57.6-25.371c11.886-4.114 24.914-7.771 38.857-11.2v-62.4c-29.486 6.4-55.771 14.171-79.086 23.314-25.6 10.057-48 21.714-66.743 34.971v-253.257c0-11.2 4.343-21.943 12.571-32.229 8.457-10.286 20.571-20.343 36.8-29.714 16.229-8.914 35.429-17.143 57.6-24.457 22.171-7.771 47.771-14.171 75.886-19.657 27.657-5.486 57.143-9.6 88-11.657 30.629-2.514 62.171-3.657 95.086-3.657 33.371 0 65.371 1.143 95.543 3.657 30.171 2.286 59.657 6.629 88 11.886 27.657 5.714 52.8 12.343 74.971 19.657s42.057 15.771 58.514 24.457c16 9.371 28.343 19.429 36.343 29.714 8 10.514 11.886 21.029 11.886 32.229v253.029c-18.971-13.257-41.371-24.914-66.971-34.971zM558.857 126.4c-0.686-1.6-1.829-3.2-3.2-4.571l-53.943-53.714c-1.6-1.6-2.971-2.514-4.571-3.2s-3.429-0.914-5.257-0.914c-1.6 0-2.971 0.229-4.571 0.914s-2.971 1.829-3.886 3.2l-117.714 116.571-117.486-117.029c-0.914-1.6-2.286-2.514-3.886-3.2s-3.2-0.914-4.571-0.914c-1.829 0-3.657 0.229-5.257 0.914s-3.2 1.829-4.571 3.2l-53.943 54.171c-1.6 1.6-2.514 2.971-3.2 4.571s-0.914 3.2-0.914 4.571c0 1.829 0.229 3.657 0.914 5.257s1.829 2.971 3.2 3.886l117.486 117.486-115.2 114.743c-1.6 1.6-2.514 2.971-3.2 4.571s-0.914 3.2-0.914 4.571c0 1.829 0.229 3.657 0.914 5.257s1.829 2.971 3.2 3.886l53.943 54.4c1.6 0.914 2.971 1.829 4.571 2.514s3.2 0.914 4.571 0.914c1.829 0 3.657-0.229 5.257-0.686s2.971-1.6 3.886-2.743l115.657-115.657 115.2 115.2c0.914 1.6 2.286 2.286 3.886 2.743s3.2 0.686 4.571 0.686c1.829 0 3.657-0.229 5.257-0.914s3.2-1.6 4.571-2.514l53.257-54.629c1.6-0.914 2.514-2.286 3.2-3.886s0.914-3.429 0.914-5.257c0-1.6-0.229-2.971-0.914-4.571s-1.829-3.2-3.2-4.571l-114.743-114.286 117.486-117.486c1.6-0.914 2.514-2.286 3.2-3.886s0.914-3.429 0.914-5.257c0-1.371-0.229-2.743-0.914-4.343z" />
<glyph unicode="&#xe91c;" glyph-name="rebalance" data-tags="pficon-rebalance" horiz-adv-x="1243" d="M1018.971-5.029c-3.657 3.2-8 5.029-13.257 5.029h-347.429v737.6c37.943 13.486 66.286 47.086 72 87.771v-0.457l275.429 53.943c5.257 0.914 9.371 3.429 11.886 7.543 2.743 4.114 3.429 8.686 2.514 13.943l-7.086 35.886c-0.914 5.257-3.429 9.371-7.543 11.886s-8.686 3.429-13.943 2.514l-275.2-53.714v-0.457c-18.971 32.457-54.171 54.4-94.629 54.4-55.314 0-101.029-40.914-108.571-93.943v0.457l-275.429-53.714c-5.257-0.914-9.371-3.429-11.886-7.543s-3.429-8.686-2.514-13.943l7.086-35.886c0.914-5.257 3.429-9.371 7.543-11.886 4.114-2.743 8.686-3.429 13.943-2.514l275.429 53.714c13.029-22.171 33.6-39.314 58.057-48v-737.6h-347.657c-5.486 0-10.057-1.371-13.257-5.029s-5.029-8-5.029-13.257v-36.571c0-5.257 1.371-10.057 5.029-13.257s8-5.029 13.257-5.029h768c5.486 0 10.057 1.371 13.257 5.029s5.029 8 5.029 13.257v36.571c0 5.486-1.371 10.057-5.029 13.257zM621.714 886.857c25.143 0 45.714-20.571 45.714-45.714s-20.571-45.714-45.714-45.714-45.714 20.571-45.714 45.714 20.571 45.714 45.714 45.714zM1223.314 430.171c-13.257 26.743-30.857 59.886-52.571 99.657s-42.057 77.029-61.257 111.771c-18.971 34.743-38.4 69.714-58.286 105.143s-30.4 54.4-32 57.143c-6.857 12.571-17.6 18.743-32 18.743s-25.143-6.4-32-18.743c-1.6-2.743-12.114-21.714-32-57.143s-39.314-70.4-58.286-105.143c-18.971-34.743-39.314-72-61.029-111.771s-39.314-73.143-52.571-99.657c-13.257-26.743-20.114-42.057-20.114-46.171 0-27.886 8.914-52.8 26.514-74.971 17.829-22.171 40-39.314 67.2-52.114 26.971-12.571 54.629-21.943 82.514-28.343s54.857-9.143 80-9.143 51.657 3.2 79.771 9.371 55.543 15.771 82.514 28.343c26.971 12.571 49.371 29.943 67.2 52.114s26.514 47.086 26.514 74.971c0 3.886-6.629 19.429-20.114 45.943zM768 384l219.429 402.286 219.429-402.286h-438.857zM439.543 383.771c-21.714 39.771-42.057 77.029-61.257 111.771-18.971 34.743-38.4 69.714-58.286 105.143s-30.4 54.4-32 57.143c-6.857 12.571-17.6 18.743-32 18.743s-25.143-6.4-32-18.743c-1.6-2.743-12.114-21.714-32-57.143s-39.314-70.4-58.286-105.143c-18.971-34.743-39.314-72-61.257-111.771-21.714-39.771-39.314-73.143-52.571-99.657-13.257-26.743-19.886-42.286-19.886-46.4 0-27.886 8.914-52.8 26.514-74.971 17.829-22.171 40-39.314 67.2-52.114 26.971-12.571 54.629-21.943 82.514-28.343s54.629-9.143 79.771-9.143 51.657 3.2 79.771 9.371 55.543 15.771 82.514 28.343c26.971 12.571 49.371 29.943 67.2 52.114s26.514 47.086 26.514 74.971c0 4.114-6.629 19.657-20.114 46.171-13.257 26.514-30.629 59.886-52.343 99.657zM256 640l149.714-274.286h-299.429l149.714 274.286z" />
<glyph unicode="&#xe91d;" glyph-name="resources-almost-empty" data-tags="resources-almost-empty" d="M954.743 694.171c45.714-78.4 68.571-164.114 68.571-256.914s-22.857-178.514-68.571-256.914-107.886-140.571-186.286-186.286-164.114-68.571-256.914-68.571-178.514 22.857-256.914 68.571-140.571 107.886-186.286 186.286c-45.486 78.4-68.343 164.114-68.343 256.914s22.857 178.514 68.571 256.914 107.886 140.343 186.286 186.057 164.114 68.571 256.914 68.571 178.514-22.857 256.914-68.571c78.171-45.714 140.343-107.657 186.057-186.057zM677.257 829.714c-52.571 22.629-107.886 34.057-165.486 34.057-57.829 0-112.914-11.429-165.486-34.057s-97.829-53.029-136-90.971c-37.943-37.943-68.343-83.2-90.971-136-22.629-52.571-34.057-107.886-34.057-165.486 0-57.829 11.429-112.914 34.057-165.486s53.029-97.829 90.971-136c37.943-37.943 83.2-68.343 136-90.971 52.571-22.629 107.886-34.057 165.486-34.057 57.829 0 112.914 11.429 165.486 34.057s97.829 53.029 136 90.971c37.943 37.943 68.343 83.2 90.971 136 22.629 52.571 34.057 107.886 34.057 165.486 0 57.829-11.429 112.914-34.057 165.486s-53.029 97.829-90.971 136c-37.943 37.943-83.429 68.343-136 90.971zM217.143 292.571c53.943-108.343 165.943-182.857 295.086-182.857 128.914 0 240.914 74.514 294.857 182.857h-589.943z" />
<glyph unicode="&#xe91e;" glyph-name="user" data-tags="pficon-user" horiz-adv-x="878" d="M657.262 657.92c0-120.978-98.085-219.063-219.063-219.063s-219.063 98.085-219.063 219.063c0 120.978 98.085 219.063 219.063 219.063s219.063-98.085 219.063-219.063zM38.766-73.143c7.826 102.327 37.303 305.737 148.041 389.559v0c0 0 59.758 50.322 150.821 49.883l201.143 0.366c91.136 0 150.821-50.322 150.821-50.322s133.12-88.722 149.285-389.559z" />
<glyph unicode="&#xe91f;" glyph-name="users" data-tags="pficon-users" horiz-adv-x="951" d="M804.571 511.122c0-80.896-65.536-146.432-146.432-146.432s-146.432 65.536-146.432 146.432c0 80.896 65.536 146.432 146.432 146.432s146.432-65.536 146.432-146.432zM475.429 255.268v0c0 0 43.447 36.571 109.714 36.279l146.286 0.293c66.267 0 109.714-36.571 109.714-36.571s109.714-73.143 109.714-327.607h-585.143c0 0 0 244.517 109.714 327.607zM438.857 730.551c0-80.896-65.536-146.432-146.432-146.432s-146.432 65.536-146.432 146.432c0 80.896 65.536 146.432 146.432 146.432s146.432-65.536 146.432-146.432zM477.696 365.714c-160.768-27.429-189.733-218.697-189.733-218.697h-288.037c0 0 0 244.59 109.714 327.607v0c0 0 43.447 36.571 109.714 36.279l146.286 0.293c29.477 0 17.92 3.73 36.571-4.315 0 0-2.267-111.47 75.41-141.166v0z" />
<glyph unicode="&#xe920;" glyph-name="thumb-tack" data-tags="pficon-thumb-tack" horiz-adv-x="805" d="M696.832 417.792c-24.064 30.939-71.314 58.368-112.128 58.368v0 328.631c40.741 0 72.338 33.573 71.095 72.704-1.17 37.449-29.769 73.362-68.827 73.362-0.951 0-370.322 0-370.322 0-22.089 0-40.741-10.021-56.174-25.381s-20.773-31.451-20.773-52.882c0-22.089 5.413-33.938 20.773-49.298s34.085-23.040 56.174-23.040v-321.755c-40.814 0-77.385-20.261-109.861-60.709s-34.962-108.91-34.962-159.744c0-10.752 4.023-19.895 12.069-27.575s17.408-11.557 28.087-11.557h214.455l46.153-276.041c1.317-4.681 3.877-8.558 7.534-11.557s7.826-4.535 12.507-4.535h19.31c4.681 0 8.85 1.682 12.507 4.974s5.851 7.68 6.51 13.019l42.496 273.993h218.039c10.679 0 20.041 3.877 28.087 11.557s12.069 16.896 12.069 27.575c0 50.761-3.145 118.784-34.962 159.744z" />
<glyph unicode="&#xe921;" glyph-name="search" data-tags="pficon-search" d="M1022.171 53.394l-280.137 280.137c52.955 82.725 75.41 187.246 52.955 296.887-27.575 137.143-163.328 275.822-299.813 306.322-291.767 64.585-545.865-189.294-481.28-481.207 35.035-151.698 154.112-268.361 304.494-299.374 112.859-22.894 216.649 0.293 300.178 53.979l280.137-280.137zM403.749 801.060c140.288 0 254.025-113.737 254.025-254.025s-113.737-254.025-254.025-254.025c-140.288 0-254.025 113.737-254.025 254.025 0.146 140.215 113.81 253.879 254.025 254.025z" />
<glyph unicode="&#xe922;" glyph-name="unlocked" data-tags="pficon-unlocked" d="M838.949 654.482c-17.115 162.597-159.232 296.375-325.193 296.375-177.079 0-329.216-152.21-329.216-329.216v-108.398h-112.055c-38.181-0.073-69.047-30.939-69.12-69.12v-443.977c0-38.107 31.013-73.728 69.12-71.387h880.201c38.107-2.267 69.12 33.28 69.12 71.387v444.050c-0.073 38.181-30.939 69.047-69.12 69.12l-623.104-0.073v108.398c0.219 101.595 82.505 183.954 184.101 184.101 88.869 0 161.426-65.682 178.176-149.358l147.017-1.829zM903.826 73.582h-541.403c-25.088 0-34.231 11.41-34.231 36.498s9.143 36.498 34.231 36.498h541.403c25.088 0 45.641-11.41 45.641-36.498s-20.553-36.425-45.641-36.425v-0.073zM903.826 292.571h-541.403c-25.088 0-34.231 11.41-34.231 36.498s9.143 36.498 34.231 36.498h541.403c25.088 0 45.641-11.41 45.641-36.498s-20.553-36.425-45.641-36.425v-0.073z" />
<glyph unicode="&#xe923;" glyph-name="locked" data-tags="pficon-locked" d="M952.32 512.951h-112.128v108.471c0 177.152-150.016 329.435-327.168 329.435s-329.435-152.283-329.435-329.435v-108.471h-112.128c-38.107 0-69.193-31.086-69.193-69.193v-444.27c0-38.107 31.086-73.728 69.193-71.461h880.859c38.107-2.267 69.193 33.353 69.193 71.461v444.27c0 38.107-31.086 69.193-69.193 69.193zM328.777 621.422c0.219 101.595 82.651 184.027 184.247 184.247 101.595 0 181.979-82.871 181.979-184.247v-108.471h-366.226v108.471zM904.558 72.923h-541.769c-25.088 0-34.231 11.41-34.231 36.498s9.143 36.498 34.231 36.498h541.769c25.088 0 45.641-11.41 45.641-36.498s-20.553-36.498-45.641-36.498v-0.073zM904.558 292.059h-541.769c-25.088 0-34.231 11.41-34.231 36.498s9.143 36.498 34.231 36.498h541.769c25.088 0 45.641-11.41 45.641-36.498s-20.553-36.498-45.641-36.498v-0.073z" />
<glyph unicode="&#xe924;" glyph-name="key" data-tags="pficon-key" d="M965.486 804.571c0 0-58.514 80.457-109.714 102.4-160.914 87.771-358.4 29.257-446.171-124.343-51.2-87.771-58.514-190.171-21.943-277.943l-387.657-380.343v-197.486h182.857v109.714h109.714v109.714h146.286l138.971 168.229c168.229-65.829 358.4 21.943 424.229 190.171 36.571 102.4 21.943 212.114-36.571 299.886zM885.029 731.428v0c0-58.514-43.886-102.4-102.4-102.4v0c-58.514 0-102.4 43.886-102.4 102.4s43.886 102.4 102.4 102.4c58.514 7.314 102.4-43.886 102.4-102.4v0z" />
<glyph unicode="&#xe925;" glyph-name="asleep" data-tags="asleep" d="M512-73.143c-70.656 0-136.997 13.385-199.022 40.009s-116.151 63.342-162.523 110.007-83.017 101.010-110.007 162.962-40.521 128.366-40.521 199.022c0 70.656 13.531 136.997 40.521 199.022s63.634 116.151 110.007 162.523 100.498 83.017 162.523 110.007 128.366 40.521 199.022 40.521c70.656 0 136.997-13.531 199.022-40.521s116.151-63.707 162.523-110.007c46.299-46.299 83.017-100.498 110.007-162.523s40.521-128.366 40.521-199.022c0-70.656-13.531-136.997-40.521-199.022s-63.707-116.37-110.007-162.962c-46.299-46.665-100.498-83.31-162.523-110.007s-128.366-40.009-199.022-40.009zM361.545 796.379c-46.958-20.334-88.137-48.128-123.465-83.529s-63.195-76.507-83.529-123.465c-20.334-46.958-30.501-97.134-30.501-150.455s10.167-103.643 30.501-150.967c20.334-47.323 48.128-88.503 83.529-123.465s76.507-62.683 123.465-83.017c46.958-20.334 97.134-30.501 150.455-30.501s103.497 10.167 150.455 30.501c46.958 20.334 88.137 47.982 123.465 83.017s63.122 76.142 83.529 123.465c20.334 47.323 30.501 97.646 30.501 150.967s-10.167 103.497-30.501 150.455c-20.334 46.958-48.128 88.137-83.529 123.465s-76.507 63.122-123.465 83.529c-46.958 20.334-97.134 30.501-150.455 30.501s-103.497-10.167-150.455-30.501zM758.565 330.313c-21.211-45.861-53.248-82.505-96.037-109.934s-89.527-41.179-140.069-41.179c-35.255 0-68.901 6.875-100.937 20.699s-59.758 32.329-83.017 55.589c-23.259 23.259-41.765 50.907-55.589 83.017s-20.699 65.682-20.699 100.937c0 34.597 6.51 67.584 19.456 99.109s30.574 58.807 52.882 81.847 48.859 41.618 79.799 55.735c30.939 14.117 63.707 21.87 98.231 23.259 9.947 0.439 21.358-6.217 25.234-15.506 4.096-9.289 4.681-19.675-2.779-26.697-19.456-17.627-36.571-38.107-46.885-61.513s-17.701-45.787-17.701-71.753c0-33.426 5.998-61.952 22.455-90.185s38.839-50.615 67.072-67.072 59.099-24.722 92.526-24.722c26.624 0 52.443 5.705 77.239 17.262 9.289 4.096 17.408 2.56 24.357-4.389 3.145-3.145 5.12-7.022 5.925-11.483s0.293-8.85-1.536-12.873v0z" />
<glyph unicode="&#xe926;" glyph-name="error-circle-o" data-tags="pficon-error-circle-o" d="M512.073-73.143c-282.331 0-512.073 229.669-512.073 512 0 282.258 229.742 512 512.073 512 282.258 0 511.927-229.742 511.927-512 0-282.331-229.669-512-511.927-512zM512.073 826.514c-213.797 0-387.73-173.861-387.73-387.657 0-213.87 173.861-387.657 387.73-387.657 213.723 0 387.657 173.787 387.657 387.73 0 213.723-173.934 387.584-387.657 387.584v0zM730.77 316.196c0.073 4.901-1.829 9.216-5.632 13.019l-109.714 109.714 110.373 110.373c3.803 3.803 5.632 8.119 5.632 13.019s-1.975 9.216-5.778 13.093l-77.166 77.166c-3.877 3.803-8.192 5.778-13.093 5.778s-9.216-1.829-13.019-5.632l-110.373-110.373-110.373 110.373c-3.803 3.803-8.119 5.632-13.019 5.632s-9.216-1.975-13.093-5.778l-77.166-77.166c-3.803-3.877-5.778-8.192-5.778-13.093s1.829-9.216 5.632-13.019l110.373-110.373-110.373-109.714c-3.803-3.803-5.632-8.119-5.632-13.019s1.975-9.216 5.778-13.093l77.166-77.166c3.877-3.877 8.192-5.778 13.093-5.778s9.216 1.829 13.019 5.632l110.373 109.714 109.714-109.714c3.803-3.803 8.119-5.632 13.019-5.632s9.216 1.975 13.093 5.778l77.166 77.166c3.877 3.803 5.778 8.192 5.851 13.019v0z" />
<glyph unicode="&#xe927;" glyph-name="cpu" data-tags="pficon-cpu" horiz-adv-x="951" d="M128.293 658.286c4.681 0 8.631-1.682 11.995-4.974s4.974-7.387 4.974-11.995v-37.083c0-4.681-1.682-8.997-4.974-13.019s-7.387-5.998-11.995-5.998h-110.226c-5.339 0-10.021 1.975-14.043 5.998s-5.998 8.631-5.998 14.043v36.059c0 5.339 1.975 9.509 5.998 12.507s8.631 4.535 14.043 4.535h110.226zM128.293 510.903c4.681 0 8.631-1.682 11.995-4.974s4.974-7.387 4.974-11.995v-37.083c0-4.681-1.682-8.997-4.974-13.019s-7.387-5.998-11.995-5.998h-110.226c-5.339 0-10.021 1.975-14.043 5.998s-5.998 8.631-5.998 14.043v36.059c0 5.339 1.975 9.509 5.998 12.507s8.631 4.535 14.043 4.535h110.226zM128.293 365.86c4.681 0 8.631-1.536 11.995-4.535s4.974-7.168 4.974-12.507v-37.083c0-4.681-1.682-8.997-4.974-13.019s-7.387-5.998-11.995-5.998h-110.226c-5.339 0-10.021 1.975-14.043 5.998s-5.998 8.631-5.998 14.043v36.059c0 5.339 1.975 9.509 5.998 12.507s8.631 4.535 14.043 4.535h110.226zM128.293 219.502c4.681 0 8.631-1.682 11.995-4.974s4.974-7.68 4.974-13.019v-36.059c0-5.339-1.682-10.021-4.974-14.043s-7.387-5.998-11.995-5.998h-110.226c-5.339 0-10.021 1.975-14.043 5.998s-5.998 8.631-5.998 14.043v36.059c0 5.339 1.975 9.655 5.998 13.019s8.631 4.974 14.043 4.974h110.226zM698.953 655.14c8.777 0 16.165-3.072 22.309-9.216s9.216-13.531 9.216-22.309v-446.318c0-8.777-3.072-16.53-9.216-23.186s-13.531-10.021-22.309-10.021h-448.951c-9.362 0-16.969 2.926-22.747 8.777s-8.777 13.385-8.777 22.747v445.44c0 9.362 2.926 17.335 8.777 24.064s13.385 10.021 22.747 10.021h448.951zM237.495 731.428c-5.339 0-10.021 1.682-14.043 4.974s-5.998 7.314-5.998 11.995h1.024v110.226c0 5.339 1.829 10.021 5.486 14.043s8.192 5.998 13.531 5.998h37.083c4.681 0 8.631-1.975 11.995-5.998s4.974-8.704 4.974-14.043v-110.226c0-4.681-1.682-8.704-4.974-11.995s-7.68-4.974-13.019-4.974h-36.059zM276.846 72.192c4.681 0 8.631-1.975 11.995-5.998s4.974-8.338 4.974-13.019v-110.226c0-5.339-1.682-9.509-4.974-12.507s-7.68-4.535-13.019-4.535h-36.059c-5.339 0-10.021 1.536-14.043 4.535s-5.998 7.168-5.998 12.507h1.024v110.226c0 4.681 1.829 8.997 5.486 13.019s8.192 5.998 13.531 5.998h37.083zM384.878 731.428c-5.339 0-10.021 1.682-14.043 4.974s-5.998 7.314-5.998 11.995v110.226c0 5.339 1.975 10.021 5.998 14.043s8.631 5.998 14.043 5.998h36.059c5.339 0 9.655-1.975 13.019-5.998s4.974-8.704 4.974-14.043v-110.226c0-4.681-1.682-8.704-4.974-11.995s-7.68-4.974-13.019-4.974h-36.059zM420.937 72.192c5.339 0 9.655-1.975 13.019-5.998s4.974-8.338 4.974-13.019v-110.226c0-5.339-1.682-9.509-4.974-12.507s-7.68-4.535-13.019-4.535h-36.059c-5.339 0-10.021 1.536-14.043 4.535s-5.998 7.168-5.998 12.507v110.226c0 4.681 1.975 8.997 5.998 13.019s8.631 5.998 14.043 5.998h36.059zM531.237 731.428c-4.681 0-8.997 1.682-13.019 4.974s-5.998 7.314-5.998 11.995v110.226c0 5.339 1.975 10.021 5.998 14.043s8.631 5.998 14.043 5.998h36.059c5.339 0 9.509-1.975 12.507-5.998s4.535-8.704 4.535-14.043v-110.226c0-4.681-1.536-8.704-4.535-11.995s-7.168-4.974-12.507-4.974h-37.083zM568.32 72.192c5.339 0 9.509-1.975 12.507-5.998s4.535-8.338 4.535-13.019v-110.226c0-5.339-1.536-9.509-4.535-12.507s-7.168-4.535-12.507-4.535h-37.083c-4.681 0-8.997 1.536-13.019 4.535s-5.998 7.168-5.998 12.507v110.226c0 4.681 1.975 8.997 5.998 13.019s8.631 5.998 14.043 5.998h36.059zM676.352 731.428c-4.681 0-8.997 1.682-13.019 4.974s-5.998 7.314-5.998 11.995v110.226c0 5.339 1.975 10.021 5.998 14.043s8.631 5.998 14.043 5.998h36.059c5.339 0 9.509-1.975 12.507-5.998s4.535-8.704 4.535-14.043v-110.226c0-4.681-1.536-8.704-4.535-11.995s-7.168-4.974-12.507-4.974h-37.083zM713.362 72.192c5.339 0 9.509-1.975 12.507-5.998s4.535-8.338 4.535-13.019v-110.226c0-5.339-1.536-9.509-4.535-12.507s-7.168-4.535-12.507-4.535h-37.083c-4.681 0-8.997 1.536-13.019 4.535s-5.998 7.168-5.998 12.507v110.226c0 4.681 1.975 8.997 5.998 13.019s8.631 5.998 14.043 5.998h36.059zM933.815 658.286c5.339 0 9.509-1.682 12.507-4.974s4.535-7.387 4.535-11.995v-37.083c0-4.681-1.536-8.997-4.535-13.019s-7.168-5.998-12.507-5.998h-110.226c-4.681 0-9.216 1.975-13.531 5.998s-6.51 8.631-6.51 14.043v36.059c0 5.339 2.121 9.509 6.51 12.507s8.85 4.535 13.531 4.535h110.226zM933.815 510.903c5.339 0 9.509-1.682 12.507-4.974s4.535-7.387 4.535-11.995v-37.083c0-4.681-1.536-8.997-4.535-13.019s-7.168-5.998-12.507-5.998h-110.226c-4.681 0-9.216 1.975-13.531 5.998s-6.51 8.631-6.51 14.043v36.059c0 5.339 2.121 9.509 6.51 12.507s8.85 4.535 13.531 4.535h110.226zM933.815 365.86c5.339 0 9.509-1.536 12.507-4.535s4.535-7.168 4.535-12.507v-37.083c0-4.681-1.536-8.997-4.535-13.019s-7.168-5.998-12.507-5.998h-110.226c-4.681 0-9.216 1.975-13.531 5.998s-6.51 8.631-6.51 14.043v36.059c0 5.339 2.121 9.509 6.51 12.507s8.85 4.535 13.531 4.535h110.226zM933.815 219.502c5.339 0 9.509-1.682 12.507-4.974s4.535-7.68 4.535-13.019v-36.059c0-5.339-1.536-10.021-4.535-14.043s-7.168-5.998-12.507-5.998h-110.226c-4.681 0-9.216 1.975-13.531 5.998s-6.51 8.631-6.51 14.043v36.059c0 5.339 2.121 9.655 6.51 13.019s8.85 4.974 13.531 4.974h110.226z" />
<glyph unicode="&#xe928;" glyph-name="chat" data-tags="pficon-chat" d="M964.681 549.010h-85.358v268.727c-1.609 47.031-16.238 59.977-50.688 59.977h-763.904c-56.32 0-64.731-5.339-64.731-59.977v-511.122c0-71.168 0-87.186 64.731-88.649h80.53v-144.53c0-23.845 13.751-35.84 30.939-35.84 140.142 0 210.286 71.607 262.656 180.663h73.143v-80.384c0.293-64.805 0.293-64.805 62.171-64.585h159.013c55.442-93.842 199.68-146.432 199.68-146.432 11.41 0 19.602 10.459 19.602 21.87v124.562h12.215c59.319-0.146 59.319-0.146 59.831 64.585v352.11c-0.512 58.514-0.512 58.514-59.831 58.953zM368.786 364.544c-11.41-203.776-149.358-219.794-149.358-219.794v220.014h-110.665v403.237h659.237v-403.456h-399.214z" />
<glyph unicode="&#xe929;" glyph-name="arrow" data-tags="arrow" horiz-adv-x="1097" d="M921.6-73.143h-885.029c-21.943 0-36.571 14.629-36.571 36.571v804.571c0 21.943 14.629 36.571 36.571 36.571h292.571l-109.714-146.286h-73.143v-585.143h658.286v73.143l146.286 146.286v-329.143c0-21.943-14.629-36.571-29.257-36.571v0zM665.6 731.428c-219.429 0-394.971-131.657-373.029-351.086 14.629-138.971 87.771-160.914 146.286-204.8-58.514 124.343 36.571 321.829 263.314 336.457 7.314 0 21.943 0 29.257 0v-219.429l365.714 329.143-365.714 329.143v-219.429c0 0-65.829 0-65.829 0z" />
<glyph unicode="&#xe92a;" glyph-name="resources-full" data-tags="resources-full" d="M512 109.714c-181.486 0-329.143 147.657-329.143 329.143s147.657 329.143 329.143 329.143c181.486 0 329.143-147.657 329.143-329.143s-147.657-329.143-329.143-329.143zM954.743 694.171c45.714-78.4 68.571-164.114 68.571-256.914s-22.857-178.514-68.571-256.914c-45.714-78.4-107.886-140.571-186.286-186.286s-164.114-68.571-256.914-68.571c-92.8 0-178.514 22.857-256.914 68.571s-140.571 107.886-186.286 186.286c-45.486 78.4-68.343 164.114-68.343 256.914s22.857 178.514 68.571 256.914c45.714 78.4 107.886 140.343 186.286 186.057s164.114 68.571 256.914 68.571c92.8 0 178.514-22.857 256.914-68.571 78.171-45.714 140.343-107.657 186.057-186.057zM677.257 829.714c-52.571 22.629-107.886 34.057-165.486 34.057-57.829 0-112.914-11.429-165.486-34.057s-97.829-53.029-136-90.971c-37.943-37.943-68.343-83.2-90.971-136-22.629-52.571-34.057-107.886-34.057-165.486 0-57.829 11.429-112.914 34.057-165.486s53.029-97.829 90.971-136c37.943-37.943 83.2-68.343 136-90.971 52.571-22.629 107.886-34.057 165.486-34.057 57.829 0 112.914 11.429 165.486 34.057s97.829 53.029 136 90.971c37.943 37.943 68.343 83.2 90.971 136 22.629 52.571 34.057 107.886 34.057 165.486 0 57.829-11.429 112.914-34.057 165.486s-53.029 97.829-90.971 136c-37.943 37.943-83.429 68.343-136 90.971z" />
<glyph unicode="&#xe92b;" glyph-name="info" data-tags="pficon-info" d="M983.552 639.049c-26.99 62.025-63.707 116.151-110.007 162.523-46.373 46.299-100.498 83.017-162.523 110.007s-128.366 40.521-199.022 40.521-136.997-13.531-199.022-40.521c-62.025-26.99-116.224-63.707-162.523-110.007-46.373-46.373-83.017-100.498-110.007-162.523s-40.521-128.366-40.521-199.022 13.531-137.070 40.521-199.022c26.99-61.952 63.634-116.297 110.007-162.962s100.498-83.383 162.523-110.007c62.025-26.624 128.366-40.009 199.022-40.009s136.997 13.312 199.022 40.009 116.151 63.342 162.523 110.007c46.299 46.592 83.017 100.937 110.007 162.962s40.521 128.366 40.521 199.022-13.531 136.997-40.521 199.022zM869.449 289.060c-20.407-47.323-48.201-88.43-83.529-123.465s-76.507-62.683-123.465-83.017c-46.958-20.334-97.134-30.501-150.455-30.501s-103.497 10.167-150.455 30.501c-46.958 20.334-88.064 48.055-123.465 83.017s-63.195 76.142-83.529 123.465c-20.334 47.25-30.501 97.646-30.501 150.967s10.167 103.497 30.501 150.455c20.334 46.958 48.274 88.064 83.529 123.465s76.507 63.195 123.465 83.529c46.958 20.334 97.134 30.501 150.455 30.501s103.497-10.167 150.455-30.501c46.958-20.407 88.137-48.201 123.465-83.529s63.195-76.507 83.529-123.465c20.334-46.958 30.501-97.134 30.501-150.455s-10.167-103.643-30.501-150.967zM584.997 603.136v72.704c0 2.633-0.366 5.193-1.024 7.461s-1.975 4.169-4.023 5.486c-1.975 1.975-4.023 3.511-5.998 4.535s-4.315 1.536-7.022 1.536h-110.007c-2.706 0-4.974-0.512-7.022-1.536s-4.023-2.487-5.998-4.535c-1.975-1.317-3.365-3.145-4.023-5.486s-1.024-4.827-1.024-7.461v-72.704c0-2.706 0.293-5.193 1.024-7.461s1.975-4.169 4.023-5.486c1.975-1.975 4.023-3.365 5.998-4.023s4.315-1.024 7.022-1.024h110.007c2.633 0 4.974 0.293 7.022 1.024s4.023 1.975 5.998 4.023c1.975 1.317 3.365 3.145 4.023 5.486s1.024 4.827 1.024 7.461zM603.429 292.571h-18.432v201.143c0 0.146-0.146 0.219-0.146 0.366-0.073 2.194-0.293 4.462-0.878 6.363-0.658 2.267-1.975 4.535-4.023 6.51-1.975 1.317-4.023 2.487-5.998 3.511s-4.315 1.536-7.022 1.536h-146.359c-10.021 0-18.286-8.265-18.286-18.286v-36.571c0-10.021 8.265-18.286 18.286-18.286h18.286v-146.286h-18.286c-10.021 0-18.286-8.265-18.286-18.286v-36.571c0-10.021 8.265-18.286 18.286-18.286h182.857c10.021 0 18.286 8.265 18.286 18.286v36.571c0 10.021-8.265 18.286-18.286 18.286z" />
<glyph unicode="&#xe92c;" glyph-name="in-progress" data-tags="in-progress" d="M193.536 38.18l67.438 116.736c-5.705 5.047-11.337 10.24-16.75 15.579-34.231 33.938-61.221 73.801-80.896 119.662-6.729 15.653-12.215 31.598-16.677 47.909l-134.875-9.289c6.729-30.574 16.311-60.27 28.818-89.015 26.99-62.025 63.634-116.37 110.007-162.962 13.678-13.751 28.014-26.624 43.081-38.619zM175.689 608.548l-120.32 60.709c-5.266-10.24-10.167-20.699-14.848-31.378-22.382-51.419-35.474-105.765-39.278-163.109l135.387 9.362c4.242 34.231 13.093 66.999 26.697 98.304 3.877 8.923 7.973 17.627 12.434 26.112v0zM983.479 637.879c-26.99 62.025-63.707 116.151-110.007 162.523s-100.498 83.017-162.523 110.007-128.366 40.521-199.022 40.521v-138.313c50.834-0.293 98.67-10.094 143.579-29.55 45.568-19.675 85.431-46.665 119.662-80.896s61.221-74.094 80.896-119.662 29.55-94.135 29.55-145.847-9.874-100.425-29.55-146.359c-19.675-45.861-46.665-85.723-80.896-119.662s-74.094-60.709-119.662-80.457-94.135-29.55-145.847-29.55c-42.935 0-83.822 6.802-122.514 20.407l-67.511-116.955c60.123-24.795 124.197-37.23 192.293-37.23 70.656 0 136.997 13.385 199.022 40.009s116.151 63.342 162.523 110.007 83.017 101.010 110.007 162.962 40.521 128.366 40.521 199.022c0 70.656-13.531 136.997-40.521 199.022z" />
<glyph unicode="&#xe92d;" glyph-name="maintenance" data-tags="maintenance" d="M984.064 846.555l-24.503 17.408c-57.49 49.371-146.359 54.272-195.73-3.218l-206.263-239.177 53.321-44.325 194.633 213.431c7.68 9.143 30.354 5.632 39.278-2.267s16.896-26.331 9.216-35.474l-197.925-214.967 41.326-35.035 11.483 12.654 183.881 203.776c7.68 9.143 25.746 5.632 34.743-2.267s16.896-26.331 9.216-35.474l-191.122-219.575 51.419-43.593 192.512 225.499c49.371 57.49 48.128 160.622-5.486 202.606zM1002.935 110.884l-518.656 459.922c19.163 35.986 29.989 77.019 29.989 120.613 0 142.043-115.127 257.17-257.17 257.17-25.966 0-51.054-3.877-74.679-11.045l148.553-148.553c22.235-22.235 22.235-58.587 0-80.823l-90.624-90.624c-22.235-22.235-58.587-22.235-80.823 0l-148.553 148.553c-7.168-23.625-11.045-48.713-11.045-74.679 0-142.043 115.127-257.17 257.17-257.17 43.593 0 84.699 10.825 120.613 29.989l459.922-518.656c20.48-23.845 55.369-25.234 77.605-2.999l90.624 90.624c22.235 22.162 20.846 57.125-2.999 77.605v0zM222.062 147.017l80.677-0.073 104.594 139.045 74.533-71.241-115.639-121.637 0.951-81.847-142.409-84.407-76.873 54.93 74.094 165.303z" />
</font>
</defs>
</svg>
